<?xml version="1.0" standalone="no"?>
<!DOCTYPE svg PUBLIC "-//W3C//DTD SVG 1.1//EN" "http://www.w3.org/Graphics/SVG/1.1/DTD/svg11.dtd" >
<svg xmlns="http://www.w3.org/2000/svg" xmlns:xlink="http://www.w3.org/1999/xlink" version="1.1">
<metadata>
Created by FontForge 20170731 at Fri Nov 18 16:54:24 2022
 By Aleksey,,,
Created by Fabian De Smet
</metadata>
<defs>
<font id="Butler-Bold" horiz-adv-x="569" >
  <font-face 
    font-family="Butler"
    font-weight="700"
    font-stretch="normal"
    units-per-em="2048"
    panose-1="2 7 8 3 8 7 6 2 3 3"
    ascent="1505"
    descent="-543"
    x-height="946"
    cap-height="1442"
    bbox="-299 -543 2267 2019"
    underline-thickness="102"
    underline-position="-307"
    unicode-range="U+0020-FB02"
  />
<missing-glyph horiz-adv-x="1038" 
d="M-2 1442h1040v-1442h-1040v1442zM457 721l-357 549v-1096zM176 1339l342 -524l342 524h-684zM518 629l-342 -527h684zM580 721l356 -547v1096z" />
    <glyph glyph-name="f_i" unicode="fi" horiz-adv-x="1210" 
d="M1049 231q0 -98 16.5 -150.5t67.5 -64.5v-16h-420v16q28 8 45 27t24.5 52t9 60t1.5 76v512q0 64 -25.5 116t-77.5 52h-264v-680q0 -96 17 -148.5t67 -66.5v-16h-420v16q53 17 67.5 68t14.5 147v680h-131l-4 35h135v47q0 284 134.5 408.5t412.5 124.5q105 0 185.5 -40.5
t107.5 -88.5q21 -38 24.5 -84t-14.5 -86q-26 -56 -84.5 -76t-114.5 8t-75.5 85.5t8.5 113.5q27 56 86 72q25 6 7 24q-29 29 -103 36q-13 1 -27 1q-19 0 -34 -1t-47.5 -10t-57.5 -24.5t-55.5 -48.5t-50.5 -78.5t-34 -118t-14 -163.5v-101h266h357v-715z" />
    <glyph glyph-name="f_l" unicode="fl" horiz-adv-x="1173" 
d="M1065 231q0 -94 16 -138.5t68 -57.5v-35h-420v35q28 8 45 24t24.5 45t9 54t1.5 73v1063q0 99 -72 131q-22 9 -43.5 15.5t-55.5 8t-63.5 -7t-61 -36t-54 -72.5t-37 -123t-14.5 -182v-82h219l-6 -35h-213v-680q0 -94 16 -138t68 -58v-35h-422v35q28 9 45.5 25t25 44.5
t9.5 54.5t2 72v680h-132l-4 35h136v164q0 198 102.5 308t255.5 108q118 0 227 -66l328 68v-1297z" />
    <glyph glyph-name=".notdef" horiz-adv-x="1038" 
d="M-2 1442h1040v-1442h-1040v1442zM457 721l-357 549v-1096zM176 1339l342 -524l342 524h-684zM518 629l-342 -527h684zM580 721l356 -547v1096z" />
    <glyph glyph-name=".null" horiz-adv-x="0" 
 />
    <glyph glyph-name="nonmarkingreturn" horiz-adv-x="682" 
 />
    <glyph glyph-name="space" unicode=" " horiz-adv-x="542" 
 />
    <glyph glyph-name="exclam" unicode="!" horiz-adv-x="684" 
d="M408 459h-134l-65 1067h270zM496 137q0 65 -46 110.5t-110 45.5q-63 0 -108.5 -46t-45.5 -110t45.5 -109.5t108.5 -45.5q65 0 110.5 45.5t45.5 109.5z" />
    <glyph glyph-name="quotedbl" unicode="&#x22;" horiz-adv-x="1089" 
d="M279 772l-72 670h268l-67 -670h-129zM702 772l-71 670h270l-70 -670h-129z" />
    <glyph glyph-name="numbersign" unicode="#" horiz-adv-x="1462" 
d="M1366 948h-270l-72 -305h213v-182h-254l-106 -461h-187l107 461h-279l-106 -461h-187l107 461h-242v182h285l69 305h-223v180h264l95 400h186l-92 -400h276l94 400h187l-94 -400h229v-180zM909 948h-278l-70 -305h277z" />
    <glyph glyph-name="dollar" unicode="$" horiz-adv-x="1216" 
d="M606 16q78 0 133 25t80.5 65t30 92t-13.5 105t-55 104t-89 89l-86 53v-533zM571 956v469q-54 0 -97.5 -21t-69 -55.5t-32.5 -80.5t6 -94.5t54 -99.5t105 -93zM852 772q138 -91 213.5 -191t84.5 -210.5t-69 -220.5q-47 -57 -97 -90.5t-144.5 -55.5t-233.5 -22v-250h-35
v250q-94 4 -178 19t-136 33t-91 35t-56 29l-16 11v393h17q153 -430 460 -484v553l-194 123q-471 295 -230 611q4 6 12.5 16.5t43.5 37.5t78.5 47t121 37t168.5 17v250h35v-250q145 -3 268 -27.5t174 -47.5l50 -23v-344h-17q-15 40 -35 81t-62 100.5t-91 104.5t-125 80
t-162 41v-491z" />
    <glyph glyph-name="percent" unicode="%" horiz-adv-x="2070" 
d="M512 0l934 1442h133l-934 -1442h-133zM573 1391q283 0 283 -373q0 -81 -13.5 -143t-44 -113t-87.5 -78t-138 -27q-82 0 -139 27t-88 78t-44 113t-13 143q0 373 284 373zM573 692q24 0 39.5 4t28 19t18.5 35t10.5 60t5.5 86.5t1 121.5q0 146 -7.5 214t-29 96t-66.5 28
q-24 0 -40 -5t-28 -21t-18.5 -38t-11 -63t-5.5 -88.5t-1 -122.5q0 -146 7.5 -211t28.5 -90t68 -25zM1518 784q282 0 282 -372q0 -81 -13 -143t-44 -113t-87.5 -78t-137.5 -27q-82 0 -139 27t-88 78t-44.5 113t-13.5 143q0 372 285 372zM1518 86q29 0 46 8t29.5 25.5
t17.5 58.5t7 92t2 142q0 111 -3.5 171.5t-15 101t-30.5 53t-53 12.5q-29 0 -46.5 -9t-30 -28.5t-18 -61.5t-8 -95.5t-2.5 -143.5q0 -88 2.5 -141.5t8.5 -93t18.5 -57.5t29.5 -26t46 -8z" />
    <glyph glyph-name="ampersand" unicode="&#x26;" horiz-adv-x="1708" 
d="M922 1430q25 -30 44 -68t28 -96t-3.5 -117t-62.5 -130t-137 -136l239 -361q89 172 227 203q94 20 150 -25q43 -35 47 -90t-33 -98q-36 -42 -90.5 -46t-97.5 32q-42 36 -45 88q0 25 -32 16q-45 -12 -85 -67q-13 -18 -22 -39l159 -236q27 -41 71 -63.5t75 -24.5l30 -2
q152 0 181 98h37q0 -128 -77.5 -200t-187.5 -84q-9 -1 -25 -2t-60 2t-82 11.5t-80 31.5t-66 57l-109 160q-21 -58 -68.5 -109.5t-109 -88t-135 -53t-143.5 -10t-137.5 45.5t-114.5 110q-212 317 244 588l92 55l-117 174q-65 93 -77 190t21.5 172t100 129t152.5 69
q196 35 299 -86zM463 236q48 -61 129 -85.5t166.5 7t130.5 121.5l-326 473l-90 -60q-58 -44 -85.5 -112.5t-11 -161.5t86.5 -182zM768 915q76 52 122 110.5t59.5 110.5t8 104.5t-23.5 91.5t-45 71q-43 45 -97 61.5t-104 -0.5q-46 -16 -78.5 -66t-34.5 -118.5t46 -142.5z" />
    <glyph glyph-name="quotesingle" unicode="'" 
d="M223 770l-69 672h268l-70 -672h-129z" />
    <glyph glyph-name="parenleft" unicode="(" horiz-adv-x="681" 
d="M651 1526l29 -27q-55 -65 -98.5 -143.5t-71 -149.5t-47 -159.5t-29 -151t-14.5 -147.5t-5.5 -126t-0.5 -108t0.5 -108t5.5 -124.5t14.5 -143.5t28.5 -142.5t46 -146t70 -129.5t97 -115l-29 -27q-100 57 -179.5 128.5t-129.5 138t-85.5 151.5t-52.5 146t-26.5 145
t-10.5 125t-1 108t1 108t10.5 125.5t26.5 147.5t53.5 153t86.5 163.5t130 156t181 152.5z" />
    <glyph glyph-name="parenright" unicode=")" horiz-adv-x="681" 
d="M514 522q0 -67 -1 -108t-10.5 -125t-26.5 -145t-52.5 -146t-85.5 -151.5t-129.5 -138t-179.5 -128.5l-29 27q54 49 97 115t70 129.5t46 146t28.5 142.5t14.5 143.5t5.5 124.5t0.5 108t-0.5 108t-5.5 126t-14.5 147.5t-29 151t-47 159.5t-71 149.5t-98.5 143.5l29 27
q101 -70 181 -152.5t130 -156t86.5 -163.5t53.5 -153t26.5 -147.5t10.5 -125.5t1 -108z" />
    <glyph glyph-name="asterisk" unicode="*" horiz-adv-x="1138" 
d="M997 1051l-368 -50l270 -256l-174 -127l-160 338l-162 -338l-172 127l271 256l-371 50l68 202l325 -178l-67 367h215l-68 -367l328 178z" />
    <glyph glyph-name="plus" unicode="+" horiz-adv-x="1464" 
d="M1346 729v-190h-521v-539h-190v539h-520v190h520v539h190v-539h521z" />
    <glyph glyph-name="comma" unicode="," horiz-adv-x="557" 
d="M369 -109q-67 -104 -172 -161l-23 28q54 41 88 98t34.5 89t-11.5 41q-73 7 -115 49q-51 47 -51.5 117.5t49.5 121.5q50 50 120 50t120 -50q47 -47 48.5 -123t-24 -139.5t-63.5 -120.5z" />
    <glyph glyph-name="hyphen" unicode="-" horiz-adv-x="909" 
d="M776 426h-645v190h645v-190z" />
    <glyph glyph-name="period" unicode="." horiz-adv-x="606" 
d="M475 162q0 -72 -50.5 -122t-121.5 -50q-72 0 -123 50t-51 122t51 123t123 51q71 0 121.5 -51t50.5 -123z" />
    <glyph glyph-name="slash" unicode="/" horiz-adv-x="880" 
d="M846 1485l-631 -1528h-186l630 1528h187z" />
    <glyph glyph-name="zero" unicode="0" horiz-adv-x="1290" 
d="M643 1460q95 0 173.5 -20.5t137 -57t103.5 -90t74.5 -116.5t48 -140t26.5 -156.5t8 -170.5q0 -128 -16 -232t-55.5 -198.5t-103 -158t-164 -101t-232.5 -37.5t-233 37.5t-164.5 101t-103.5 158t-56 198.5t-16 232q0 129 15.5 235.5t56 204.5t104 165t164.5 106.5
t233 39.5zM643 16q97 0 148.5 57t75.5 205.5t24 430.5q0 280 -26 436.5t-78.5 218t-143.5 61.5q-95 0 -147.5 -62t-77.5 -216.5t-25 -437.5q0 -279 26 -430t78 -207t146 -56z" />
    <glyph glyph-name="one" unicode="1" horiz-adv-x="868" 
d="M582 195q0 -45 11.5 -77t26 -48t41 -24t43.5 -9.5t46 -1.5v-35h-617v35q31 0 53 2t51 11t47 25t31 47t13 75v886q0 38 -10.5 61t-27.5 29.5t-37.5 6t-40.5 -8.5t-37 -16.5t-27 -15.5l-11 -7l-20 33l399 297h66v-1265z" />
    <glyph glyph-name="two" unicode="2" horiz-adv-x="1009" 
d="M911 379h35l-104 -379h-762l467 680q125 214 63 373q-39 102 -141 146q-105 46 -209 5q-95 -38 -143 -137l-33 8q10 78 37 141.5t62.5 102.5t76.5 68t80 42.5t70.5 21t51.5 8.5l19 1q151 0 250.5 -100t99.5 -242q0 -95 -57 -196.5t-190 -270.5q-45 -57 -116 -154.5
t-119 -166.5l-48 -68h424q55 0 104.5 29t81.5 88z" />
    <glyph glyph-name="three" unicode="3" horiz-adv-x="1081" 
d="M977 475q7 -106 -21 -192t-77 -140.5t-115.5 -92t-133 -53t-132.5 -15.5q-233 0 -369 102q-32 23 -46.5 68.5t-4.5 89.5q13 64 69 98.5t119 19.5q65 -15 99.5 -70.5t19.5 -119.5q-14 -60 -66 -90q-13 -5 2 -22q36 -39 159 -42h16q75 0 126.5 31t75.5 84.5t31.5 112.5
t1.5 127q-3 28 -12.5 60t-37 78.5t-67.5 85t-111 71.5t-161 45v34q98 30 161 80t85 104t20.5 109.5t-25 101t-59.5 74.5q-47 39 -119 46t-145 -28.5t-110 -111.5l-33 8q9 68 34 123t58 88.5t70 58.5t73 36t65 18t47 8h17q86 0 165.5 -34t130.5 -96t68.5 -140t-22.5 -176.5
t-139 -194.5q133 -67 210 -158t83 -186z" />
    <glyph glyph-name="four" unicode="4" horiz-adv-x="1120" 
d="M1044 401h-213v-104q0 -74 11 -126t25 -78t41 -40t46 -16t52 -2v-35h-646v35q32 0 52 2.5t46 16t41 39t25.5 75t10.5 119.5v114h-476v35l676 1024l96 -18v-897h213v-144zM535 545v542l-287 -434q-22 -30 -30 -51.5t-6 -32.5t14 -16.5t22 -6.5t26 -1h261z" />
    <glyph glyph-name="five" unicode="5" horiz-adv-x="1095" 
d="M188 893q135 22 243.5 17.5t192 -24t145.5 -57t104.5 -80.5t68.5 -96t37.5 -102.5t11.5 -99.5q0 -113 -41 -203.5t-112 -148t-164.5 -87.5t-200.5 -30q-201 0 -319 96q-31 27 -46 71.5t-6 88.5q15 63 71.5 97t121.5 19q63 -14 97.5 -70t19.5 -120q-12 -62 -66 -92
q-21 -13 -5 -29q27 -27 132 -27q68 0 123 15.5t91 42t60.5 61t34.5 73.5t9.5 79t-11.5 78q-5 16 -13 34.5t-23.5 43.5t-35.5 48t-51 48t-67.5 45.5t-87.5 36.5t-108.5 25t-132 8.5t-157.5 -11.5l152 799h709l-88 -268h-631z" />
    <glyph glyph-name="six" unicode="6" horiz-adv-x="1196" 
d="M733 897q84 0 151 -25.5t110 -68t71 -101.5t39.5 -122t11.5 -134q0 -116 -39 -206t-108.5 -145.5t-160.5 -84t-200 -28.5q-170 0 -288.5 82.5t-176 231.5t-57.5 355q0 183 51.5 338t138.5 256.5t199 158t234 56.5q58 0 109 -15t84.5 -38t54.5 -43t32 -39
q21 -31 20.5 -77.5t-24.5 -82.5q-34 -55 -96 -69t-117 20q-54 34 -67.5 96.5t20.5 116.5q37 56 90 64q10 1 -2 11q-29 21 -104 21q-47 0 -87.5 -18t-80.5 -66t-67.5 -124t-45 -200.5t-18.5 -287.5q71 168 323 168zM608 16q80 0 123 31.5t63.5 115.5t20.5 243
q0 196 -51.5 300.5t-138.5 104.5q-27 0 -56.5 -7.5t-62 -24.5t-58.5 -50.5t-38 -79.5q2 -175 11.5 -287.5t32 -194t59.5 -116.5t95 -35z" />
    <glyph glyph-name="seven" unicode="7" horiz-adv-x="1138" 
d="M143 1442h924l-154 -264q-251 -446 -251 -1178h-291q0 135 20 252.5t73.5 260.5t156 307.5t258.5 357.5h-545q-58 0 -116.5 -30.5t-88.5 -88.5h-35z" />
    <glyph glyph-name="eight" unicode="8" horiz-adv-x="1157" 
d="M702 872q59 28 82 92t23 171q0 83 -21.5 142.5t-58 90t-76.5 44t-86 13.5q-85 0 -138.5 -58t-53.5 -167q0 -100 78 -180.5t251 -147.5zM821 268q0 48 -20.5 93.5t-49 78.5t-74 67t-79 54t-80.5 45q-35 18 -78 43q-52 -27 -96.5 -108t-44.5 -217t77 -222t218 -86
q102 0 164.5 64.5t62.5 187.5zM1087 414q0 -93 -24.5 -166.5t-68.5 -123t-106.5 -81.5t-135 -46.5t-158.5 -14.5q-520 0 -520 329q0 63 30.5 126.5t77.5 111t103 81.5t108 46q-133 85 -200.5 188.5t-67.5 206.5q0 189 124 289t316 100q191 0 309.5 -78.5t118.5 -220.5
q0 -65 -25.5 -126.5t-84 -113.5t-140.5 -71q147 -71 245.5 -191.5t98.5 -244.5z" />
    <glyph glyph-name="nine" unicode="9" horiz-adv-x="1181" 
d="M459 547q-84 0 -151 25.5t-110 68t-71 101.5t-39.5 121.5t-11.5 133.5q0 116 39 205.5t108.5 145t160.5 84t200 28.5q255 0 388.5 -177.5t133.5 -489.5q0 -384 -159.5 -597.5t-463.5 -213.5q-213 0 -297 137q-21 31 -20.5 77.5t24.5 82.5q34 55 96 69t117 -20
q54 -34 68 -96.5t-20 -116.5q-36 -55 -93 -64q-10 -1 8 -12q41 -23 117 -23q66 0 111 12t79.5 46t54.5 82t32.5 132.5t16.5 183t5 247.5q-81 -172 -323 -172zM584 1425q-81 0 -123.5 -31t-63 -114t-20.5 -242q0 -196 51.5 -300.5t138.5 -104.5q36 0 76.5 15t82 56t56.5 101
q-5 346 -45.5 483t-152.5 137z" />
    <glyph glyph-name="colon" unicode=":" 
d="M463 162q0 -73 -52 -124.5t-124 -51.5q-73 0 -124.5 51t-51.5 125t51.5 125t124.5 51q72 0 124 -51.5t52 -124.5zM463 788q0 -72 -52 -124t-124 -52q-73 0 -124.5 52t-51.5 124t51.5 124.5t124.5 52.5q72 0 124 -52.5t52 -124.5z" />
    <glyph glyph-name="semicolon" unicode=";" 
d="M463 788q0 -74 -51.5 -125t-124.5 -51t-124.5 51t-51.5 125q0 72 51.5 124.5t124.5 52.5t124.5 -52.5t51.5 -124.5zM377 -109q27 40 47 88t31.5 101.5t0 105.5t-47.5 88q-50 50 -120 50t-120 -50q-50 -51 -49.5 -121.5t51.5 -117.5q42 -42 115 -49q12 -9 13 -42.5
t-34.5 -89t-93.5 -90.5l23 -28q129 70 184 155z" />
    <glyph glyph-name="less" unicode="&#x3c;" horiz-adv-x="1228" 
d="M399 545l734 -387v-191l-1039 533v88l1039 532v-192z" />
    <glyph glyph-name="equal" unicode="=" horiz-adv-x="1255" 
d="M1161 694h-1046v164h1046v-164zM1161 233h-1046v164h1046v-164z" />
    <glyph glyph-name="greater" unicode="&#x3e;" horiz-adv-x="1228" 
d="M96 158l733 387l-733 383v192l1039 -532v-88l-1039 -533v191z" />
    <glyph glyph-name="question" unicode="?" horiz-adv-x="1214" 
d="M571 336q72 0 123 -50t51 -122t-51 -123t-123 -51t-122 51t-50 123t50 122t122 50zM1036 1182q3 -86 -15 -158.5t-49 -121t-73 -85.5t-80.5 -56.5t-77.5 -29.5q-84 -22 -129.5 -86.5t-38.5 -155.5l-53 -8q-6 38 -6.5 71t7 79.5t35 92t73.5 83.5q73 62 98 144t12 223
q-5 69 -30 122.5t-63 85.5t-85.5 48t-99.5 13.5t-103 -22.5q-47 -20 -52 -56q-1 -26 18 -30q51 -8 86 -55q32 -48 22 -104.5t-55 -90.5q-46 -32 -103.5 -20t-91.5 59q-38 53 -14 142q11 47 54.5 101t111.5 85q118 52 243 56t224 -33t164.5 -114t70.5 -179z" />
    <glyph glyph-name="at" unicode="@" horiz-adv-x="1826" 
d="M1081 1278q107 -4 205.5 -37.5t182.5 -98.5t144 -154.5t88.5 -214.5t16.5 -269q-8 -98 -34.5 -178t-62.5 -133t-84.5 -93t-95 -62t-99.5 -35t-92 -17t-79 -4q-67 0 -102 42t-27 91q-11 -15 -30.5 -33t-55 -43t-88.5 -41t-112 -16q-54 0 -95.5 24.5t-64 64t-37 88.5
t-14.5 98.5t4 94.5q8 51 23.5 104t51 121.5t82.5 119.5t124 86.5t171 35.5q19 0 37 -3t32 -8t26.5 -11t22 -13t17 -14t13 -13.5t9 -11.5t5.5 -9l2 -3l11 53l200 -4q-100 -538 -114 -612q-4 -22 -4.5 -43.5t14.5 -38t43 -16.5q27 0 62.5 15.5t74.5 51.5t71.5 85.5t54 125.5
t21.5 164q0 55 -4 105t-17.5 112t-35 114.5t-59.5 105t-89 90.5t-125.5 64.5t-166.5 33.5q-138 10 -258.5 -28t-207 -108.5t-152.5 -166.5t-103.5 -198t-52.5 -208q-2 -9 -4 -25t-4.5 -65t0 -96.5t16 -113.5t37 -124t68 -118.5t105 -105.5t153 -78t206.5 -42q68 -4 135 6
t114 27.5t84.5 35.5t55.5 31l19 13l20 -31q-6 -7 -17.5 -17.5t-54 -38t-93 -48.5t-135 -38.5t-179.5 -17.5q-69 0 -138.5 9t-149 34t-149.5 63t-135 100.5t-110.5 142.5t-71.5 194t-22 250q4 138 46.5 264t113 225t166 179.5t205.5 132.5t230.5 78t241.5 22zM1053 178
q3 17 27.5 134.5t39.5 195.5q3 19 6 41t4 65t-5 75.5t-26.5 57.5t-54.5 25q-91 0 -162 -101t-100 -239q-15 -85 -9.5 -145t29 -99t53 -58t63.5 -21q25 -2 48 4t38 16.5t26.5 21.5t17.5 19z" />
    <glyph glyph-name="A" unicode="A" horiz-adv-x="1449" 
d="M1249 184q15 -34 28.5 -59.5t27.5 -41t23.5 -25.5t25 -14.5t22 -6t23.5 -2t22 -0.5v-35h-585v35q45 0 67 22.5t21 54.5t-8 64.5t-17 55.5l-10 22l-62 149h-485q-3 -8 -6.5 -22t-10.5 -53.5t-8 -75t9 -78.5t32 -73.5t68.5 -49.5t112.5 -16v-35h-504v35q36 3 54 14
q74 47 213 370q18 42 38 89l354 934h35zM348 438h467l-244 598z" />
    <glyph glyph-name="B" unicode="B" horiz-adv-x="1314" 
d="M758 739q36 0 68 -2t81 -10.5t89.5 -23.5t83.5 -43t73 -66t49 -96.5t19 -130.5q0 -75 -19 -133t-46.5 -96.5t-79.5 -65t-97.5 -40.5t-123.5 -21.5t-133 -9t-149 -1.5h-497v18q42 0 69.5 38t38.5 94.5t11 130.5v878q0 51 -6 96t-19.5 84.5t-37.5 62.5t-56 23v17h497
q200 0 273 -11q172 -25 234 -135q44 -76 44 -202q0 -62 -18.5 -115.5t-47 -88.5t-66 -63.5t-73.5 -44t-71 -26t-57 -14t-33 -3.5zM573 1407h-79v-659h79q38 0 71 7t70.5 29.5t64 59t44 102t17.5 152.5q0 63 -10.5 113t-25.5 82t-39.5 54.5t-45.5 34t-52 17.5t-48.5 7
t-45.5 1zM573 35h6q50 0 75.5 1t68 7t65.5 18.5t52.5 37.5t44 60.5t25 90.5t10.5 127q0 68 -12.5 121.5t-31.5 88t-50 59.5t-58.5 37.5t-66.5 19.5t-65 8.5t-63 1.5h-79v-678h79z" />
    <glyph glyph-name="C" unicode="C" horiz-adv-x="1406" 
d="M1260 430h34l29 -321q-109 -72 -232.5 -99.5t-297.5 -27.5q-160 0 -295 58t-225.5 158.5t-140.5 235t-50 287.5t50 287.5t140.5 235t225.5 158.5t295 58q180 0 310.5 -26.5t219.5 -98.5l-29 -321h-34q-90 217 -194.5 314t-272.5 97q-89 0 -150 -31.5t-105.5 -109.5
t-65.5 -216.5t-21 -346.5t21.5 -347t67 -217t106 -109.5t147.5 -31.5q176 0 300.5 118.5t166.5 295.5z" />
    <glyph glyph-name="D" unicode="D" horiz-adv-x="1572" 
d="M616 1442q93 0 176.5 -8.5t172 -31t161.5 -57.5t139 -92t111.5 -131t72 -178t26.5 -229q0 -715 -859 -715h-540v35q66 0 109.5 70.5t43.5 175.5v878q0 99 -43.5 173.5t-109.5 74.5v35h540zM616 35q51 0 91.5 4t95 19.5t95.5 43t84 78.5t70.5 121t45.5 176t18 238
q0 133 -17.5 239.5t-45.5 177.5t-71 123.5t-84.5 81t-95 45t-95 21t-91.5 4.5h-90v-1372h90z" />
    <glyph glyph-name="E" unicode="E" horiz-adv-x="1337" 
d="M1174 446h34v-446h-1153v35q61 0 90 67t29 179v878q0 68 -10.5 121t-38 90t-70.5 37v35h1127v-389h-35q-10 72 -48 130.5t-92 94.5t-116.5 62.5t-123.5 39t-111 19t-80 7.5l-31 1h-74v-662h74q7 0 18 0.5t44 4.5t63 11.5t67.5 23.5t65.5 37.5t49 57t25 78.5h34v-460h-34
q-4 43 -24.5 78.5t-50 57t-64.5 37.5t-69 23.5t-61.5 11.5t-45.5 4l-17 1h-74v-676h74q11 0 31 1t78 9t112 22t123.5 44.5t123 72.5t98.5 110t63 152z" />
    <glyph glyph-name="F" unicode="F" horiz-adv-x="1232" 
d="M51 1442h1149v-389h-35q-15 76 -57.5 136.5t-98.5 97t-120.5 62.5t-126 36.5t-112 16t-80.5 5.5h-31h-72v-659h72h18t44.5 3.5t64.5 10t70.5 22t69 37t53.5 57t32 80.5h35v-460h-35q-8 45 -31.5 80.5t-55 57t-67.5 37t-71 22.5t-63.5 10.5t-46.5 3.5h-17h-72v-428
q0 -67 10.5 -114t25.5 -72.5t40.5 -39.5t46.5 -17t53 -3v-35h-592v35q119 0 119 246v878q0 68 -10.5 121t-38 90t-70.5 37v35z" />
    <glyph glyph-name="G" unicode="G" horiz-adv-x="1525" 
d="M897 573h578v-34q-32 0 -51 -4.5t-37 -22t-26.5 -47t-16 -84t-9.5 -128.5t-2 -185q-223 -86 -534 -86q-162 0 -298 58t-227.5 158.5t-142.5 235t-51 287.5t51 287.5t142.5 235t227.5 158.5t298 58q359 0 522 -108l-14 -351h-70q-43 233 -146.5 328.5t-291.5 95.5
q-92 0 -153 -31t-105.5 -109.5t-65 -216.5t-20.5 -347q0 -140 9.5 -247.5t29 -185.5t47 -130.5t67.5 -84t86 -44.5t105 -13q94 0 144.5 7.5t81 35.5t38.5 69.5t8 121.5q0 69 -4 118t-15.5 81t-23 50t-35 27t-42.5 11t-54 2v34z" />
    <glyph glyph-name="H" unicode="H" horiz-adv-x="1347" 
d="M1305 1407q-19 -4 -33.5 -12t-24.5 -16.5t-16.5 -27.5t-9.5 -31.5t-5 -42.5t-2 -47.5v-58.5v-5v-5.5v-6v-5.5v-870q0 -20 -0.5 -51t-0.5 -44.5t1 -35.5t3 -31t6.5 -23.5t11 -20.5t16.5 -14.5t23 -13.5t31 -10v-35h-426v35q35 13 42 50t7 149v45v391h-496v-391v-55
q-1 -106 6.5 -141.5t42.5 -47.5v-35h-428v35q18 5 31.5 10t24 13.5t17 15t10.5 20.5t6.5 23.5t3 30.5t0.5 35.5t-0.5 44.5t-0.5 51v870q0 139 -8 174q-13 64 -68 80l-16 4v35h428v-35q-39 -12 -46 -79q-3 -26 -3 -179v-438h496v438q0 157 -3 183q-9 63 -46 75v35h426v-35z
" />
    <glyph glyph-name="I" unicode="I" horiz-adv-x="798" 
d="M80 1442h645v-35q-72 0 -123 -46.5t-51 -135.5v-977q0 -99 52 -156t122 -57v-35h-645v35q71 0 122.5 57t51.5 156v977q0 90 -50 136t-124 46v35z" />
    <glyph glyph-name="J" unicode="J" horiz-adv-x="907" 
d="M176 1442h651v-35q-75 0 -126.5 -47.5t-51.5 -140.5v-846q0 -622 -637 -715l-8 35q340 122 340 680v596q0 302 -23.5 370t-144.5 68v35z" />
    <glyph glyph-name="K" unicode="K" horiz-adv-x="1667" 
d="M70 1442h618v-35q-79 0 -127.5 -39.5t-48.5 -142.5v-973q0 -102 43 -159.5t111 -57.5v-35h-596v35q66 0 105.5 57.5t39.5 159.5v973q0 92 -38 137t-107 45v35zM1352 168q35 -47 77 -76.5t86 -40.5t68.5 -13.5t56.5 -2.5v-35h-323q-42 0 -73.5 2.5t-63 12.5t-54 20
t-51.5 35t-49.5 46.5t-54.5 66t-61 82.5t-74 106q-53 75 -104.5 146t-77.5 105l-25 33l282 342l48 61q136 187 97 278q-28 68 -157 71v35h676v-35q-38 0 -60.5 -1.5t-65 -12.5t-78 -32t-92 -62.5t-115.5 -101t-139.5 -151.5t-172.5 -210z" />
    <glyph glyph-name="L" unicode="L" horiz-adv-x="1366" 
d="M1204 444h35v-444h-1163v35q66 0 105.5 62.5t39.5 166.5v961q0 89 -46 135.5t-116 46.5v35h650v-35q-36 0 -67.5 -8t-60.5 -27t-46 -56.5t-17 -90.5v-1190h74q11 0 31 1t77.5 9t111 22t121.5 44.5t120 72t94.5 109t56.5 151.5z" />
    <glyph glyph-name="M" unicode="M" horiz-adv-x="2023" 
d="M1810 248q0 -99 53 -156t124 -57v-35h-619v35q66 0 107 55.5t41 157.5v1098l-545 -1364h-35l-574 1228v-692q0 -10 0.5 -27.5t5.5 -67.5t14.5 -95.5t30 -101.5t49 -96t75 -67.5t104.5 -27.5v-35h-621v35q63 0 113.5 26.5t82 69t54.5 94t33.5 103.5t17 94.5t7.5 69.5v26
v748q-74 130 -224 140q-5 1 -8 1v35h516l494 -1039l410 1039h452v-35q-70 0 -114 -45.5t-44 -134.5v-979z" />
    <glyph glyph-name="N" unicode="N" horiz-adv-x="1720" 
d="M1065 1442h621v-35q-63 0 -114 -26.5t-82 -69t-54 -94.5t-33 -103.5t-16 -94.5t-7 -70v-27v-922h-108l-895 1124v-602q0 -10 0.5 -27.5t5.5 -68t14.5 -96.5t30.5 -102.5t49.5 -97t75 -68t104.5 -27.5v-35h-622v35q63 0 114 27t82 70t54 94.5t33.5 103.5t16.5 95t7 70v27
v639l-80 101q-31 39 -60.5 67t-48.5 42.5t-43 23t-34 10t-31.5 2t-26.5 0.5v35h502l826 -1018v498q0 10 -0.5 27.5t-6 68t-15 96.5t-30.5 102t-49.5 96.5t-75 67.5t-104.5 27v35z" />
    <glyph glyph-name="O" unicode="O" horiz-adv-x="1589" 
d="M791 1460q165 0 300 -60t223 -162.5t135.5 -238t47.5 -288.5q0 -154 -47.5 -286.5t-135.5 -231t-223 -155t-300 -56.5t-300 56.5t-223.5 155t-136 231.5t-47.5 286t48 288.5t136 238t223 162.5t300 60zM791 16q76 0 130 18.5t98 64t70 124.5t40 199.5t14 288.5
q0 210 -20.5 348.5t-65.5 219t-108.5 113.5t-157.5 33q-76 0 -131 -20.5t-99.5 -69t-71.5 -130.5t-41 -204t-14 -290q0 -210 20.5 -346t67 -213t110 -106.5t159.5 -29.5z" />
    <glyph glyph-name="P" unicode="P" horiz-adv-x="1333" 
d="M569 614h-73v-333q0 -66 17.5 -114t41.5 -72.5t60 -39t62.5 -17.5t59.5 -3v-35h-674v35q63 0 99.5 69.5t36.5 176.5v890q0 98 -41 167t-107 69v35h518q108 0 194 -7t167.5 -24t140.5 -48t104.5 -75.5t68 -110t22.5 -149.5t-22.5 -149.5t-68 -110t-104.5 -75.5t-140.5 -48
t-167.5 -24t-194 -7zM496 1407v-758h73q39 0 65.5 1t60.5 5t57 11.5t50 21.5t44 33t34.5 47.5t27.5 65.5t16 86t6 108q0 60 -6 109t-16 86t-27.5 65.5t-34.5 48t-44 33t-49.5 20.5t-57 11t-60.5 5t-66 1h-73z" />
    <glyph glyph-name="Q" unicode="Q" horiz-adv-x="1579" 
d="M1260 -238l-351 119q-7 3 -20.5 8t-58 15t-90.5 13.5t-114.5 -2t-135 -24t-148 -61.5t-156.5 -106l27 -27q2 2 15 12.5t19 14.5t20.5 13.5t25.5 13t28.5 9t34.5 5.5t37.5 -1t44 -8t49.5 -18l177 -74q138 -58 230.5 -88.5t182 -44.5t157.5 4t126 68l219 188l-25 27
q-2 -1 -15.5 -11t-20 -14t-22.5 -14t-28.5 -14.5t-31.5 -11t-37.5 -8t-40.5 -2t-47 4.5t-51 14zM791 1460q165 0 300 -60t223 -162.5t135.5 -238t47.5 -288.5q0 -154 -47.5 -286.5t-135.5 -231t-223 -155t-300 -56.5t-300 56.5t-223.5 155t-136 231.5t-47.5 286t48 288.5
t136 238t223 162.5t300 60zM791 16q76 0 130 18.5t98 64t70 124.5t40 199.5t14 288.5q0 210 -20.5 348.5t-65.5 219t-108.5 113.5t-157.5 33q-76 0 -131 -20.5t-99.5 -69t-71.5 -130.5t-41 -204t-14 -290q0 -210 20.5 -346t67 -213t110 -106.5t159.5 -29.5z" />
    <glyph glyph-name="R" unicode="R" horiz-adv-x="1490" 
d="M1237 236q14 -55 46 -96t70 -62t69 -31t55 -12v-35h-189h-105.5t-79 7t-61.5 8.5t-43 23.5t-35 33t-26 55t-27.5 70.5t-29.5 97.5q-29 94 -47 151q-19 59 -52.5 102.5t-67.5 63.5t-65 31t-51 13l-20 1h-97v-409q0 -101 42.5 -157t109.5 -56v-35h-596v35q67 0 107 55.5
t40 157.5v977q0 182 -147 182v35h508q95 0 167.5 -3.5t147.5 -14t130 -28.5t104 -47.5t79.5 -70.5t48 -98t17.5 -129q0 -178 -101.5 -263t-297.5 -108q42 4 83 -5t85.5 -39t84 -79.5t77.5 -131.5t67 -189zM545 692q55 0 84 1t73.5 8t68.5 20t54 39t44.5 64t25 95t10.5 132
t-10.5 132t-25 94.5t-45 63t-53.5 38.5t-69 19.5t-73.5 7.5t-83.5 1h-64v-715h64z" />
    <glyph glyph-name="S" unicode="S" horiz-adv-x="1261" 
d="M852 772q138 -91 213.5 -191t84.5 -210.5t-69 -220.5q-2 -4 -6 -10t-20.5 -23.5t-37 -33t-56.5 -35t-77.5 -33.5t-101.5 -23.5t-127 -9.5q-111 0 -210 13t-160 32t-106.5 37.5t-64.5 31.5l-20 13v393h35q52 -144 97 -221q156 -265 429 -265q64 0 112 32t67.5 85t15.5 115
t-45 129t-113 119l-315 198q-471 295 -230 611q4 6 12.5 16.5t43.5 37.5t78.5 47t121 37t168.5 17q98 0 188.5 -10t149.5 -24.5t103.5 -29t65.5 -24.5l20 -10v-344h-35q-11 30 -22.5 57.5t-35 70.5t-49.5 78.5t-66 74t-85 65t-105.5 44t-128.5 17.5q-54 0 -97.5 -21
t-69 -55.5t-32.5 -80.5t6 -94.5t54 -99.5t105 -93z" />
    <glyph glyph-name="T" unicode="T" horiz-adv-x="1429" 
d="M39 1442h1347v-412h-34q-3 75 -30 136t-67 99.5t-88 67t-95 42t-86 21.5t-63 10l-24 1h-39v-1159q0 -99 52 -156t122 -57v-35h-645v35q70 0 122 57t52 156v1159h-39q-9 0 -24.5 -1.5t-61 -9.5t-87 -21.5t-93 -42.5t-89 -67t-65 -99t-30.5 -136h-35v412z" />
    <glyph glyph-name="U" unicode="U" horiz-adv-x="1540" 
d="M1507 1442v-35q-63 0 -114 -16.5t-82 -43.5t-53.5 -60t-33 -66t-16 -60t-6.5 -44v-17v-608q0 -91 -19 -166t-49.5 -127t-74 -91.5t-88.5 -63t-96.5 -38t-93.5 -19.5t-85 -5q-141 0 -255 59.5t-183.5 180t-69.5 282.5v723q0 89 -45.5 134.5t-117.5 45.5v35h651v-35
q-37 0 -68 -8t-60 -26.5t-46 -55.5t-17 -90v-738q0 -177 97 -281t247 -104q60 0 119 25t108.5 71.5t80 122.5t30.5 169v608q0 6 -0.5 17.5t-5.5 43.5t-14 61t-30 64.5t-49 61t-74.5 42.5t-104.5 17v35h618z" />
    <glyph glyph-name="V" unicode="V" horiz-adv-x="1587" 
d="M965 1442h579v-35q-21 0 -32 -0.5t-32 -5t-34.5 -12.5t-36.5 -25t-41.5 -41t-44.5 -61t-51.5 -85t-57 -113.5t-65.5 -145.5l-369 -918h-35l-524 1241q-20 47 -42 80t-40 49.5t-41 25t-36.5 10t-34.5 1.5v35h651v-35q-47 0 -73.5 -24.5t-31 -59.5t-2 -70t9.5 -59l7 -25
l313 -780l215 539q2 6 6 16.5t13.5 43.5t16.5 64.5t12 75t3.5 80.5t-13 74.5t-33.5 64t-62 43.5t-94 17v35z" />
    <glyph glyph-name="W" unicode="W" horiz-adv-x="2297" 
d="M1663 1442h604v-35q-33 0 -62 -8t-71.5 -38t-83.5 -80.5t-94 -143t-107 -219.5l-354 -918h-35l-366 885l-328 -885h-35l-514 1241q-19 48 -40.5 81t-38.5 49.5t-39.5 25t-35 9.5t-34.5 1v35h653v-35q-50 0 -78 -24.5t-32 -59.5t-1 -70t11 -59l8 -25l295 -747l190 514
l-117 305q-18 48 -39.5 81t-38 49.5t-40 25t-36 9.5t-34.5 1v35h653v-35q-52 0 -80 -24.5t-32 -59.5t-0.5 -70t11.5 -59l9 -25l291 -755l195 514q2 6 6 16.5t14 43.5t17.5 64.5t12.5 75t3.5 80.5t-13 74.5t-34 64t-63.5 43.5t-97 17v35z" />
    <glyph glyph-name="X" unicode="X" horiz-adv-x="1699" 
d="M1417 201q128 -166 244 -166v-35h-676v35q39 10 53.5 37.5t8 59.5t-19 62t-25.5 50l-13 20l-217 303l-113 -151q-6 -8 -15 -21.5t-31 -53.5t-36.5 -76t-20.5 -79.5t5.5 -75.5t52.5 -53.5t111 -21.5v-35h-614v35q59 0 105 19q171 70 415 395l117 153
q-137 201 -252.5 360.5t-161.5 217.5l-47 59q-44 57 -83.5 93.5t-73 51t-54.5 19t-47 4.5v35h723v-35q-35 0 -57.5 -18t-29.5 -48.5t7 -75.5t49 -94l209 -282l112 149q3 5 8.5 13t20.5 33t27 49.5t23 58t15 62t-2.5 57.5t-25.5 49.5t-57.5 33.5t-94.5 13v35h672v-35
q-254 0 -559 -401l-117 -152z" />
    <glyph glyph-name="Y" unicode="Y" horiz-adv-x="1579" 
d="M938 1442h614v-35q-17 0 -31.5 -1.5t-47 -10.5t-62 -25t-72.5 -49.5t-83.5 -80t-90 -120.5t-96.5 -166l-135 -284v-422q0 -99 52 -156t122 -57v-35h-645v35q70 0 122 57t52 156v317q-134 236 -233.5 406.5t-132.5 222.5l-33 53q-32 55 -64 90.5t-62 49.5t-49.5 18
t-44.5 4v33h654v-33q-15 0 -24 -0.5t-28 -4.5t-29 -12t-19 -25.5t-6.5 -41t16.5 -62t43 -87.5l288 -471l138 284q2 5 6 14.5t13.5 38t17 56t13.5 65.5t6 70t-8.5 65t-27 56.5t-52.5 38t-81 14.5v35z" />
    <glyph glyph-name="Z" unicode="Z" horiz-adv-x="1263" 
d="M1217 1442l-758 -1407h96q89 0 176.5 34t154 85.5t122 113t89 115t48.5 94.5h37l-52 -477h-1081l813 1407h-96q-202 0 -378.5 -111t-231.5 -268h-41l39 414h1063z" />
    <glyph glyph-name="bracketleft" unicode="[" horiz-adv-x="681" 
d="M231 1505h420v-35q-43 0 -66.5 -1.5t-57 -10.5t-50.5 -26.5t-30 -51.5t-13 -84v-1405q0 -43 13.5 -73.5t31.5 -46t50.5 -24t57 -10t64.5 -1.5v-35h-420v1804z" />
    <glyph glyph-name="backslash" unicode="\" horiz-adv-x="888" 
d="M666 -41l-637 1546h186l637 -1546h-186z" />
    <glyph glyph-name="bracketright" unicode="]" horiz-adv-x="681" 
d="M23 1505h419v-1804h-419v35q40 0 64.5 1.5t57 10t50.5 24t31.5 46t13.5 73.5v1405q0 50 -13 84t-30 51.5t-50.5 26.5t-57 10.5t-66.5 1.5v35z" />
    <glyph glyph-name="asciicircum" unicode="^" horiz-adv-x="1177" 
d="M604 1442l379 -672h-92l-311 320l-306 -320h-92l375 672h47z" />
    <glyph glyph-name="underscore" unicode="_" horiz-adv-x="1146" 
d="M0 -141h1147v-125h-1147v125z" />
    <glyph glyph-name="grave" unicode="`" horiz-adv-x="716" 
d="M238 1475l346 -334h-76l-500 262z" />
    <glyph glyph-name="a" unicode="a" horiz-adv-x="1079" 
d="M614 211v276q-268 -60 -268 -245q0 -6 1 -15t8 -32.5t19.5 -41.5t40 -32.5t64.5 -14.5q48 0 84 31.5t51 73.5zM971 106q5 0 12.5 1t22.5 9.5t20 24.5l35 -14q-13 -54 -81 -99.5t-159 -45.5q-7 0 -19.5 1t-45 9.5t-59 24t-51 50t-30.5 80.5q-24 -69 -107.5 -117
t-189.5 -48q-5 0 -13.5 0.5t-33 4.5t-46.5 11t-49 22.5t-46.5 36.5t-33 55.5t-13.5 77.5q0 34 6 62t15 51t28 42.5t36.5 34t50 29.5t58.5 25t72 23t80.5 21.5t94.5 23.5q58 14 89 22v127q0 159 -77 230.5t-183 15.5q-58 -29 -64 -58q-3 -11 5 -12q50 -6 76 -45
q27 -40 18 -86.5t-49 -74.5q-40 -27 -87 -18t-75 48q-18 29 -19.5 63t13.5 60q31 54 63 84q38 35 97 66q41 22 90.5 32t78.5 10l29 -1q98 0 166 -29t106 -86t54 -128t16 -167v-305q0 -6 0.5 -15.5t5.5 -34.5t14.5 -44t30 -34.5t48.5 -15.5z" />
    <glyph glyph-name="b" unicode="b" horiz-adv-x="1214" 
d="M631 16q114 0 163.5 97.5t49.5 330.5q0 241 -57.5 338t-186.5 97q-101 0 -157 -74t-56 -187v-260q0 -93 21 -162t57.5 -106.5t77.5 -55.5t88 -18zM702 965q87 0 165 -34t138.5 -96t96 -159t35.5 -215q0 -121 -38 -213.5t-106.5 -150t-159 -86.5t-200.5 -29
q-195 0 -299 104q-64 -54 -144 -79q-57 -18 -57 3v1276q0 54 -21 81t-83 50v35l358 76v-737q46 85 138 129.5t177 44.5z" />
    <glyph glyph-name="c" unicode="c" horiz-adv-x="1024" 
d="M922 264l28 -18q-12 -43 -41 -86t-76.5 -84.5t-123 -67.5t-166.5 -26q-97 0 -183 43.5t-143.5 114t-91 159t-33.5 178.5t34.5 176t99 156t168 113t229.5 43q165 0 268 -91q27 -24 39 -62.5t2 -74.5q-15 -55 -64 -84t-104 -14q-55 13 -83 62.5t-13 103.5q11 55 63 82
q13 6 -9 20q-36 23 -99 23q-18 0 -38.5 -4.5t-47.5 -17t-52.5 -31.5t-50.5 -52t-43 -74.5t-29.5 -102.5t-11.5 -134q0 -155 71.5 -239.5t188.5 -110.5q76 -17 176 15.5t136 84.5z" />
    <glyph glyph-name="d" unicode="d" horiz-adv-x="1206" 
d="M817 299v289q0 93 -21 162t-57.5 106.5t-77.5 55.5t-88 18q-114 0 -164.5 -97t-50.5 -327q0 -246 54.5 -349.5t179.5 -103.5q103 0 164 68.5t61 177.5zM1071 199q0 -75 21 -101.5t84 -34.5v-34l-302 -45q-25 -4 -39.5 5t-16.5 20l-1 11v127q-31 -57 -89 -96t-114.5 -54
t-109.5 -15q-87 0 -165.5 34t-139 96.5t-96 159.5t-35.5 215q0 121 38 213.5t106.5 149.5t158.5 86t200 29q141 0 246 -62v391q0 53 -20 76t-84 47v35l358 76v-1329z" />
    <glyph glyph-name="e" unicode="e" horiz-adv-x="1073" 
d="M338 526h401q0 189 -54.5 296.5t-141.5 107.5q-58 0 -106 -60t-73.5 -152.5t-25.5 -191.5zM553 965q222 0 329 -116.5t107 -356.5h-651q12 -145 80 -228t176 -108q88 -20 188.5 11.5t137.5 100.5l34 -18q-11 -35 -30.5 -69t-55.5 -71t-82 -64.5t-113.5 -45.5t-146.5 -18
q-129 0 -234.5 72t-161.5 183t-56 232q0 217 133.5 356.5t345.5 139.5z" />
    <glyph glyph-name="f" unicode="f" horiz-adv-x="684" 
d="M756 1423q19 -28 22 -67.5t-12 -71.5q-23 -44 -71.5 -60.5t-92.5 5.5q-46 23 -62 70.5t7 93.5q20 45 71 55q19 2 9 16q-16 23 -71 27h-13q-42 0 -69.5 -46.5t-43.5 -169.5t-16 -329h219l-6 -35h-213v-680q0 -94 16 -138t68 -58v-35h-420v35q28 8 45 24t24.5 45t9 54
t1.5 73v680h-131l-2 35h133q0 140 16.5 241.5t46 167t78 103.5t105.5 53t135 15q76 0 137 -34.5t80 -68.5z" />
    <glyph glyph-name="g" unicode="g" horiz-adv-x="1171" 
d="M1137 958q32 -35 29 -83t-40 -80q-36 -32 -83 -29t-80 39q-31 39 -25 82q2 13 -24 5q-32 -11 -58 -42q74 -77 74 -193q0 -130 -106.5 -218.5t-288.5 -88.5q-113 0 -189 31q-17 -8 -38.5 -29.5t-34.5 -49t-13 -53.5t31 -43.5t92 -17.5h287q54 0 94.5 -3.5t96 -22t88.5 -51
t52.5 -96.5t8.5 -152q0 -7 -2 -19.5t-16 -48.5t-35.5 -70t-67 -77.5t-105.5 -77.5q-140 -78 -298.5 -101.5t-280 11.5t-160.5 117q-35 76 -14 149.5t73 131t115 85.5q-106 52 -106 172q0 8 1 21t11 49t28.5 67.5t59 67.5t96.5 57q-76 33 -122 105.5t-46 154.5
q0 130 106.5 219t287.5 89q185 0 294 -91q68 100 193 121q30 6 62 -3.5t53 -33.5zM438 -86q-112 0 -182 29q-53 -30 -76.5 -68.5t-20 -73t14.5 -64.5t25 -47l14 -18q88 -105 246.5 -128.5t306.5 57.5q38 23 64 52.5t36.5 55t15.5 48t4 35.5l-1 13q-1 4 -3 11.5t-13 26.5
t-27.5 33t-49.5 26t-75 12h-279zM535 385q38 0 64.5 10.5t48 39t32 83.5t10.5 139q0 83 -11.5 139t-33.5 84t-48 39t-62 11q-41 0 -67.5 -10.5t-47 -40t-30 -83.5t-9.5 -139q0 -83 11 -138.5t33 -84t47.5 -39t62.5 -10.5z" />
    <glyph glyph-name="h" unicode="h" horiz-adv-x="1103" 
d="M987 252q0 -97 17 -151t67 -66v-35h-420v35q53 16 67.5 68t14.5 149v387q0 88 -41.5 130t-130.5 42q-45 0 -92 -32t-78 -91v-436q0 -98 16.5 -150.5t67.5 -64.5v-37h-422v37q53 16 67.5 67.5t14.5 147.5v1032q0 53 -19.5 76t-82.5 47v35l358 86v-785q29 82 136 152
t202 70q86 0 140.5 -27.5t86 -99t31.5 -191.5v-395z" />
    <glyph glyph-name="i" unicode="i" horiz-adv-x="577" 
d="M410 1268q0 -58 -41.5 -99t-100.5 -41q-58 0 -98.5 40.5t-40.5 99.5q0 58 40.5 98.5t98.5 40.5q59 0 100.5 -40.5t41.5 -98.5zM416 250q0 -98 16.5 -149.5t67.5 -65.5v-35h-420v35q53 17 67.5 68t14.5 147v455q0 52 -21 80.5t-84 62.5v35l359 82v-715z" />
    <glyph glyph-name="j" unicode="j" horiz-adv-x="575" 
d="M162 55v641q0 54 -21 86.5t-82 65.5v35l357 82v-863q0 -113 -20.5 -203t-54 -150t-84 -105t-103 -70t-117.5 -41v35q35 9 61 62t37.5 123t18 139t7.5 116zM412 1268q0 -58 -41.5 -99t-100.5 -41q-57 0 -98 41t-41 99t41 98.5t98 40.5q59 0 100.5 -40.5t41.5 -98.5z" />
    <glyph glyph-name="k" unicode="k" horiz-adv-x="1144" 
d="M379 248q0 -97 16.5 -149t67.5 -64v-35h-422v35q53 16 67.5 66.5t14.5 146.5v1036q0 55 -21 82.5t-82 50.5v35l359 76v-1280zM926 137q69 -95 194 -102v-35h-289q-35 0 -58.5 2.5t-47 14t-38 22t-39.5 41.5t-41.5 55t-53.5 80l-18 27l-115 172l192 209q8 8 21 22.5t45 53
t48 72t24 68.5t-20 54.5t-91 17.5v35h498v-35q-90 -10 -168 -47q-177 -84 -351 -299z" />
    <glyph glyph-name="l" unicode="l" horiz-adv-x="542" 
d="M406 248q0 -98 15.5 -149.5t65.5 -63.5v-35h-419v35q53 16 67.5 66.5t14.5 146.5v1036q0 55 -21 82.5t-82 50.5v35l359 76v-1280z" />
    <glyph glyph-name="m" unicode="m" horiz-adv-x="1628" 
d="M1597 35v-35h-421v35q53 16 67 67t14 148v397q0 84 -39 127t-110 43q-57 0 -109.5 -56.5t-52.5 -117.5v-393q0 -98 16.5 -150.5t67.5 -64.5v-35h-422v35q53 16 67.5 67.5t14.5 147.5v397q0 85 -38.5 127.5t-108.5 42.5q-56 0 -110 -56t-54 -112v-403q0 -95 17 -146
t67 -65v-35h-420v35q53 16 66.5 65t13.5 146v448q0 56 -21 88.5t-82 65.5v35l359 82v-211q42 91 128 151t181 60q220 0 256 -217q32 93 122.5 155t188.5 62q63 0 108 -14t80 -48.5t52.5 -96.5t17.5 -153v-403q0 -98 16.5 -150.5t67.5 -64.5z" />
    <glyph glyph-name="n" unicode="n" horiz-adv-x="1103" 
d="M975 250q0 -98 16.5 -150.5t67.5 -64.5v-35h-422v35q53 16 67.5 67.5t14.5 147.5v397q0 75 -45.5 122.5t-120.5 47.5q-61 0 -117.5 -53.5t-56.5 -114.5v-403q0 -95 17 -146t67 -65v-35h-420v35q53 16 66.5 65t13.5 146v463q0 53 -19.5 79t-83.5 60v35l359 82v-220
q34 91 136 155.5t202 64.5q63 0 108 -14t80 -48.5t52.5 -96.5t17.5 -153v-403z" />
    <glyph glyph-name="o" unicode="o" horiz-adv-x="1138" 
d="M571 965q114 0 207.5 -39t154.5 -106t93.5 -156t32.5 -191q0 -136 -55.5 -246t-168 -177.5t-264.5 -67.5q-225 0 -356 141t-131 350q0 137 56 247.5t168 177.5t263 67zM571 16q76 0 114.5 38t54.5 133.5t16 285.5t-16 285.5t-54.5 133.5t-114.5 38t-114.5 -38t-55 -133.5
t-16.5 -285.5t16.5 -285.5t55 -133.5t114.5 -38z" />
    <glyph glyph-name="p" unicode="p" horiz-adv-x="1234" 
d="M631 16q114 0 164.5 99.5t50.5 330.5q0 242 -58 342.5t-186 100.5q-89 0 -144.5 -62t-66.5 -159v-375q6 -75 30 -131t58.5 -86.5t72.5 -45t79 -14.5zM702 965q87 0 165.5 -33.5t139.5 -95t96.5 -158t35.5 -213.5q0 -121 -38 -214.5t-106.5 -151.5t-159.5 -87.5
t-200 -29.5q-147 0 -244 63v-354q0 -94 16.5 -140t67.5 -59v-35h-420v35q23 7 38.5 20.5t24 29t13 42t5.5 48.5t1 59v1042q0 51 -19 71t-83 44v35l356 82v-166q45 83 135.5 124.5t175.5 41.5z" />
    <glyph glyph-name="q" unicode="q" horiz-adv-x="1210" 
d="M813 281v307q0 180 -62.5 261t-160.5 81q-114 0 -163.5 -95.5t-49.5 -326.5q0 -250 54 -362.5t177 -112.5q101 0 153 68t52 180zM1069 -311q0 -94 16 -139t68 -58v-35h-420v35q28 8 44.5 24.5t24 45t9.5 55t2 72.5v397q-53 -53 -127 -78.5t-141 -25.5q-87 0 -165.5 34
t-139 97t-96 160.5t-35.5 215.5q0 121 38 213t106.5 149t158.5 85.5t200 28.5q163 0 265 -76q37 29 84.5 49t75 21t32.5 -13v-1257z" />
    <glyph glyph-name="r" unicode="r" horiz-adv-x="870" 
d="M631 954q31 15 82.5 8t83.5 -34q47 -41 51 -105t-37 -110q-42 -48 -103.5 -53t-111.5 36q-47 44 -47 101q0 15 -29 5q-57 -20 -115 -102l-16 -24v-426q0 -98 16.5 -149.5t67.5 -65.5v-35h-424v35q23 7 39 22.5t24.5 32.5t12.5 46.5t5 51.5t1 62v455q0 54 -20 82.5
t-82 60.5v35l360 82v-232q38 60 74.5 102t71 66t51 32.5t45.5 20.5z" />
    <glyph glyph-name="s" unicode="s" horiz-adv-x="909" 
d="M621 530q137 -85 177 -206t-36 -232q-3 -4 -9.5 -11.5t-31.5 -26.5t-55 -33.5t-81 -26.5t-110 -12q-69 0 -133 9.5t-105.5 23.5t-73 28t-45.5 23l-14 10v258h35q0 -1 13 -36t19 -48.5t24.5 -50t33.5 -55.5t42 -47.5t55 -43t67 -26t82 -11.5q53 0 85 31t36 74t-23.5 94
t-83.5 88l-206 125q-149 91 -187 207.5t47 226.5q3 4 9.5 11t31 25t54 31.5t80.5 24.5t108 11q105 0 189.5 -15.5t116.5 -31.5l32 -15v-229h-35q-9 25 -14 37.5t-20.5 44t-29.5 50.5t-39.5 45.5t-52.5 41.5t-65.5 26t-81.5 11q-49 0 -82.5 -27t-41 -66t20.5 -88.5t91 -89.5z
" />
    <glyph glyph-name="t" unicode="t" horiz-adv-x="724" 
d="M551 127q40 0 73.5 22.5t49.5 49.5l31 -19q-33 -77 -119.5 -137.5t-184.5 -60.5q-64 0 -109 14.5t-80 49t-52 96.5t-17 153v616h-102l-6 35h108v275l256 43v-318h244l-8 -35h-236v-610q0 -174 152 -174z" />
    <glyph glyph-name="u" unicode="u" horiz-adv-x="1148" 
d="M1010 188q0 -50 9 -72.5t28 -30t67 -13.5v-35l-303 -53q-24 -4 -38.5 6t-16.5 22l-2 11v180q-36 -87 -143 -154t-203 -67q-64 0 -109.5 14.5t-80 49.5t-51.5 96.5t-17 152.5v438q0 89 -8 109q-11 30 -60 41q-18 4 -47 8v35l368 39v-664q0 -87 41.5 -128.5t130.5 -41.5
q45 0 96.5 37t82.5 96v463v22v41.5t-1.5 31t-5.5 25t-10.5 16.5t-17.5 14t-26 8t-36 6v35l353 39v-777z" />
    <glyph glyph-name="v" unicode="v" horiz-adv-x="1069" 
d="M670 946h399v-35q-20 0 -33.5 -2.5t-42 -19t-54 -47.5t-62.5 -94.5t-74 -153.5l-244 -612h-33l-381 821q-17 39 -36 62.5t-39.5 32.5t-32 11t-31.5 2v35h483v-35q-32 0 -48 -16t-15.5 -38.5t6 -44.5t12.5 -38l7 -16l202 -434l113 278q3 6 7 17.5t12.5 43.5t13 61t2.5 65
t-14 61.5t-41.5 43t-75.5 17.5v35z" />
    <glyph glyph-name="w" unicode="w" horiz-adv-x="1667" 
d="M1249 946h402v-35q-17 0 -30 -2.5t-41.5 -19.5t-54.5 -47.5t-60.5 -94.5t-67.5 -153l-236 -612h-33l-299 649l-241 -649h-35l-391 841q-16 31 -33.5 50.5t-36.5 27t-30 9t-29 1.5v35h483v-35q-34 0 -51.5 -13.5t-18.5 -33.5t2.5 -39.5t9.5 -32.5l7 -14l213 -448l131 344
l-70 149q-17 31 -34.5 50.5t-36.5 27t-30.5 9t-29.5 1.5v35h486v-35q-36 0 -55 -13.5t-20 -33.5t3 -39.5t11 -32.5l7 -14l213 -448l105 272q2 6 6 17.5t12 43.5t11 61t-0.5 65t-16.5 61.5t-44 43t-77 17.5v35z" />
    <glyph glyph-name="x" unicode="x" horiz-adv-x="1120" 
d="M926 121q59 -86 180 -86v-35h-500v35q28 0 38 14.5t4.5 35.5t-15 42.5t-19.5 36.5l-10 14l-125 191l-82 -119q-3 -4 -7.5 -12t-14 -30.5t-14 -42.5t-1.5 -45t17 -43t48 -30t85 -12v-35h-463v35q140 0 324 246l88 120l-293 439q-25 30 -49 46.5t-35.5 20t-32.5 4t-24 0.5
v35h489v-35q-27 0 -43 -11t-13.5 -41t34.5 -75l116 -178l70 90q3 4 7.5 12t15 30.5t16 42.5t5 45t-11.5 43t-39.5 30t-74.5 12v35h463v-35q-1 0 -17.5 -1t-31 -4t-40 -10t-53 -24t-61.5 -42t-75 -66t-83 -94l-71 -95z" />
    <glyph glyph-name="y" unicode="y" horiz-adv-x="1107" 
d="M676 946h401v-35q-19 0 -32.5 -2.5t-42.5 -19.5t-55 -48t-63.5 -95t-74.5 -154l-313 -825q-58 -152 -154 -228q-28 -24 -74.5 -30.5t-83.5 10.5q-54 25 -74.5 79.5t3.5 108.5q25 54 79.5 75t108.5 -3q52 -23 70 -84q6 -20 31 -6q35 19 59 82l78 211q-56 130 -153 342.5
t-166 359.5l-68 147q-12 28 -29 46t-37.5 24.5t-32.5 8t-30 1.5v35h483v-35q-30 0 -46 -13t-18.5 -31.5t-0.5 -36.5t7 -31l5 -13l217 -462l108 276q2 4 4.5 11t9.5 28.5t12.5 42t9 48.5t3 52t-8.5 49t-23 42t-43 27.5t-66 10.5v35z" />
    <glyph glyph-name="z" unicode="z" horiz-adv-x="948" 
d="M881 946l-500 -911q322 0 420 276h35l-19 -311h-758l533 911q-132 0 -223.5 -32t-138.5 -81.5t-72 -121.5h-35l10 270h748z" />
    <glyph glyph-name="braceleft" unicode="{" horiz-adv-x="681" 
d="M446 6q0 -105 13.5 -168t38.5 -93.5t69 -45.5v-35q-305 43 -305 342v240q0 101 -11 164.5t-37 91.5t-43.5 36t-54.5 14q-11 2 -16 3v35q6 1 17 4q20 4 30.5 7t28.5 12.5t28 22.5t22.5 37.5t19 57t11.5 82t5 111.5v239q0 299 305 342v-35q-66 -24 -93.5 -88.5
t-27.5 -218.5v-295q0 -295 -270 -295q61 0 106.5 -11.5t84 -40.5t59 -84t20.5 -136v-295z" />
    <glyph glyph-name="bar" unicode="|" horiz-adv-x="454" 
d="M150 -336v1841h155v-1841h-155z" />
    <glyph glyph-name="braceright" unicode="}" horiz-adv-x="681" 
d="M229 6v295q0 81 20.5 136t59.5 84t84.5 40.5t106.5 11.5q-271 0 -271 295v295q0 154 -27 218.5t-93 88.5v35q305 -43 305 -342v-239q0 -86 9.5 -147.5t20.5 -93.5t34.5 -52.5t37 -25.5t42.5 -11q11 -3 17 -4v-35q-57 -11 -71 -17q-66 -30 -83 -160q-7 -57 -7 -132v-240
q0 -299 -305 -342v35q66 23 93 87.5t27 219.5z" />
    <glyph glyph-name="asciitilde" unicode="~" horiz-adv-x="1228" 
d="M713 401l-246 88q-28 10 -71.5 11t-91 -7t-89.5 -34t-61 -66l-33 15q30 73 68.5 127t75.5 82.5t75 46t70.5 20.5t57.5 2.5t40 -4.5l14 -4l246 -88q27 -11 70 -12t89.5 8t87.5 35.5t60 66.5l31 -12q-30 -73 -68 -127.5t-74.5 -83t-73.5 -47t-68.5 -22t-56 -3t-38.5 4.5z
" />
    <glyph glyph-name="uni007F" horiz-adv-x="0" 
 />
    <glyph glyph-name="uni00A0" unicode="&#xa0;" horiz-adv-x="542" 
 />
    <glyph glyph-name="exclamdown" unicode="&#xa1;" horiz-adv-x="653" 
d="M266 694h131l66 -1052h-266zM180 1014q0 63 45 107t109 44q63 0 107 -44t44 -107q0 -64 -44 -109t-107 -45q-64 0 -109 45t-45 109z" />
    <glyph glyph-name="cent" unicode="&#xa2;" horiz-adv-x="1091" 
d="M412 514q0 -279 237 -346v760q-30 -6 -59 -20.5t-62 -46t-58 -75t-41.5 -114.5t-16.5 -158zM983 264l29 -18q-11 -38 -35 -77.5t-63 -79t-99 -68.5t-131 -39v-224h-35v224q-125 0 -222.5 43t-155.5 115t-87.5 158t-29.5 179q0 87 32 170t92 152.5t156.5 114.5t214.5 51
v249h35v-249q165 0 268 -91q27 -24 39 -62.5t2 -74.5q-15 -55 -64 -84t-104 -14q-55 13 -83 62.5t-13 103.5q11 55 64 82q13 6 -9 20q-37 23 -100 23v-770q77 -11 171 22t128 82z" />
    <glyph glyph-name="sterling" unicode="&#xa3;" horiz-adv-x="1372" 
d="M291 -18q-16 0 -37.5 4t-60 16.5t-71 46t-48.5 82.5q-6 18 -6.5 41.5t5 50t20.5 51.5t37.5 47.5t58.5 37.5t81 20.5t108.5 -3t137.5 -32.5l76 -25q0 93 -98 244q-101 155 -113 178h-191v35h177q-48 111 -64.5 210.5t-3.5 175.5t46.5 139.5t83.5 105.5t109 70.5t121.5 38
t123.5 3.5t112 -28q88 -38 129 -78.5t63 -93.5q13 -34 3.5 -78t-39.5 -74q-41 -44 -103 -44.5t-106 42.5t-44.5 104.5t42.5 104.5q35 37 102 37q26 0 1 20q-26 21 -58 29q-59 15 -111 16t-96 -11t-75.5 -39.5t-50.5 -67.5t-21 -98.5t12.5 -129t51.5 -161t95 -193.5h371v-35
h-350l55 -75q62 -98 62.5 -207.5t-52.5 -198.5l152 -47q79 -23 146.5 -18.5t115 31t57.5 63.5l35 -8q0 -47 -11 -88t-30 -69.5t-41.5 -52t-45 -38t-41.5 -24t-31 -13.5l-11 -4q-83 -25 -182 8.5t-230 108.5q-66 -72 -155 -99.5t-213 -27.5zM113 141q11 -42 36 -70
t55.5 -38.5t49 -13.5t35.5 -3q188 0 278 150q-120 71 -192 104q-95 38 -157 22t-90 -60t-15 -91z" />
    <glyph glyph-name="currency" unicode="&#xa4;" horiz-adv-x="1253" 
d="M1116 707q0 -156 -90 -285l182 -180l-118 -121l-183 182q-126 -90 -284 -90t-287 90l-180 -182l-119 121l180 180q-90 134 -90 285q0 155 90 286l-180 181l119 118l180 -180q129 90 287 90t284 -90l183 180l118 -118l-182 -181q90 -126 90 -286zM623 389
q132 0 224.5 93.5t92.5 224.5q0 132 -92.5 225.5t-224.5 93.5t-226 -93.5t-94 -225.5q0 -131 94 -224.5t226 -93.5z" />
    <glyph glyph-name="yen" unicode="&#xa5;" horiz-adv-x="1437" 
d="M864 1442h615v-35q-17 0 -31.5 -1.5t-47 -10.5t-62.5 -25t-73 -49.5t-83.5 -80t-90 -120.5t-96.5 -166l-135 -284h338v-35h-338v-148h338v-34h-338v-205q0 -99 52 -156t122 -57v-35h-645v35q70 0 122 57t52 156v205h-381v34h381v78l-41 70h-340v35h322
q-114 198 -199 342.5t-113 189.5l-28 45q-32 55 -64 90.5t-61.5 49.5t-49 18t-44.5 4v33h653v-33q-15 0 -24 -0.5t-28 -4.5t-29 -12t-19 -25.5t-6.5 -41t16.5 -62t43 -87.5l289 -471l137 284q2 5 6 14.5t13.5 38t17 56t13.5 65.5t6 70t-8.5 65t-27 56.5t-52.5 38t-81 14.5
v35z" />
    <glyph glyph-name="brokenbar" unicode="&#xa6;" horiz-adv-x="454" 
d="M311 1505v-768h-166v768h166zM311 381v-772h-166v772h166z" />
    <glyph glyph-name="section" unicode="&#xa7;" horiz-adv-x="1138" 
d="M805 127q66 -63 103.5 -155.5t27.5 -182.5q-6 -66 -28.5 -118t-53 -85t-72.5 -56t-81.5 -33.5t-85 -15t-79 -4t-67.5 4.5q-79 8 -137.5 36.5t-81.5 57.5q-22 27 -26.5 65t12.5 72q22 50 72.5 68.5t101.5 -4.5q50 -23 68 -73.5t-5 -100.5q-21 -44 -82 -62q-8 -3 9 -9
q26 -10 71 -15q112 -13 180.5 37t77.5 147q8 78 -21.5 139t-121.5 121l-254 164q-60 39 -106 86.5t-78.5 103t-38 117t14 124.5t78 130t152.5 129q-152 141 -133 348q6 66 27.5 118t51 85t69.5 56t78 34t82.5 15t77 3.5t67.5 -4.5q76 -7 135 -36t82 -58q22 -26 26.5 -64.5
t-10.5 -72.5q-25 -50 -75 -68t-101 5q-50 23 -68 73.5t5 100.5q12 25 25 37.5t36 19.5q12 4 -4 14q-18 10 -53 15q-118 9 -193 -40.5t-84 -144.5q-16 -154 160 -264l254 -160q73 -46 127.5 -106.5t82 -134.5t20 -149.5t-66 -157t-167.5 -152.5zM702 207q20 -10 72 -51
q57 42 89 82.5t44.5 72t1.5 66.5t-24.5 57t-50 53t-57.5 45.5t-64 42.5q-20 13 -29 19q-41 27 -102.5 65.5t-102.5 63.5l-41 25q-30 20 -51 38q-59 -40 -94.5 -78.5t-47 -71t-5 -64.5t24.5 -58t47.5 -52.5t58.5 -47t63 -43.5q16 -10 23 -15q42 -27 103 -64.5t102 -61.5z" />
    <glyph glyph-name="dieresis" unicode="&#xa8;" horiz-adv-x="598" 
d="M225 1323q0 -51 -35.5 -87t-85.5 -36q-51 0 -86.5 36t-35.5 87q0 50 35.5 84.5t86.5 34.5q50 0 85.5 -35t35.5 -84zM610 1323q0 -51 -35.5 -87t-85.5 -36q-51 0 -85.5 36t-34.5 87q0 50 34.5 84.5t85.5 34.5q50 0 85.5 -35t35.5 -84z" />
    <glyph glyph-name="copyright" unicode="&#xa9;" horiz-adv-x="1669" 
d="M834 1528q157 0 300 -61t246.5 -164.5t164.5 -246.5t61 -300t-61 -300t-164.5 -246.5t-246.5 -164.5t-300 -61q-158 0 -301 61t-246.5 164.5t-164.5 246.5t-61 300t61 300t164.5 246.5t246.5 164.5t301 61zM834 139q165 0 306 83t223.5 225.5t82.5 308.5t-82.5 308.5
t-223.5 226t-306 83.5q-166 0 -308 -83.5t-224.5 -226t-82.5 -308.5q0 -124 49 -238.5t131.5 -197t196.5 -132t238 -49.5zM1075 565h35l10 -174q-62 -41 -129 -56.5t-164 -15.5q-181 0 -291 119.5t-110 296.5q0 178 110 298t291 120q205 0 293 -70l-10 -176h-35
q-12 64 -38 108t-62 65.5t-71 29.5t-77 8q-40 0 -72 -16t-60.5 -55.5t-44 -118.5t-15.5 -193q0 -381 192 -381q46 0 81 8t70.5 29.5t60 65t36.5 108.5z" />
    <glyph glyph-name="ordfeminine" unicode="&#xaa;" horiz-adv-x="653" 
d="M319 1051v131q-76 -18 -108.5 -46.5t-32.5 -70.5q0 -3 0.5 -7.5t4.5 -15.5t10.5 -20t21.5 -16t35 -7q48 0 69 52zM506 995q16 1 20 21l27 -10q-5 -31 -37.5 -53.5t-85.5 -22.5q-4 0 -10.5 0.5t-24 4.5t-31.5 11t-26.5 23t-15.5 37q-11 -31 -55.5 -53.5t-100.5 -22.5
q-5 0 -13.5 0.5t-29.5 6.5t-37 16t-29.5 32t-13.5 53q0 33 10 56.5t26 39t49.5 29t65 22.5t88.5 23q24 6 37 9v63q0 81 -41 111t-100 4q-28 -12 -29 -22l3 -3q28 0 41 -22q14 -20 8.5 -45t-25.5 -37q-20 -15 -45 -10.5t-39 24.5q-20 26 -4 63q21 49 80 80q22 12 49 17.5
t43 4.5l16 -1q99 0 139 -55t40 -158v-160q0 -3 0.5 -8.5t3 -19t7.5 -23.5t15.5 -18t24.5 -7z" />
    <glyph glyph-name="guillemotleft" unicode="&#xab;" horiz-adv-x="1249" 
d="M651 1034v-80l-252 -409l252 -398v-79l-473 477zM1069 1034v-80l-250 -409l250 -398v-79l-473 477z" />
    <glyph glyph-name="logicalnot" unicode="&#xac;" horiz-adv-x="1337" 
d="M84 817h1159v-655h-170v487h-989v168z" />
    <glyph glyph-name="uni00AD" unicode="&#xad;" horiz-adv-x="909" 
d="M776 426h-645v190h645v-190z" />
    <glyph glyph-name="registered" unicode="&#xae;" horiz-adv-x="1677" 
d="M836 1528q157 0 300 -61t246.5 -164.5t164.5 -246.5t61 -300t-61 -300t-164.5 -246.5t-246.5 -164.5t-300 -61t-300 61t-246.5 164.5t-165 246.5t-61.5 300t61.5 300t165 246.5t246.5 164.5t300 61zM836 143q166 0 307 82t223 223.5t82 307.5t-82 307.5t-223 224
t-307 82.5t-307.5 -82.5t-223.5 -224t-82 -307.5q0 -124 48.5 -238t130.5 -196t196 -130.5t238 -48.5zM1141 506q24 -88 129 -88v-35h-103h-57t-42.5 4t-32.5 5.5t-22.5 13.5t-18.5 19t-14 31t-15 40.5t-16.5 56t-22.5 70.5q-16 47 -50.5 73.5t-61.5 29.5l-26 3h-53v-197
q0 -55 22.5 -84.5t59.5 -29.5v-35h-319v35q36 0 58 29.5t22 84.5v506q0 49 -19.5 65.5t-60.5 16.5v35h272q73 0 124 -4t101 -16.5t80.5 -35t49 -61t18.5 -92.5q0 -95 -55 -140t-160 -58q62 7 119 -49.5t94 -192.5zM770 764q30 0 44.5 0.5t39.5 4t37 10t28.5 19.5t24.5 32
t13.5 48.5t5.5 67.5q0 36 -5.5 64t-13.5 46.5t-24.5 31t-28.5 19t-37 9.5t-39.5 3.5t-44.5 0.5h-35v-356h35z" />
    <glyph glyph-name="macron" unicode="&#xaf;" horiz-adv-x="737" 
d="M772 1202h-805v141h805v-141z" />
    <glyph glyph-name="degree" unicode="&#xb0;" horiz-adv-x="780" 
d="M383 1509q109 0 187.5 -78t78.5 -188q0 -108 -78.5 -185t-187.5 -77t-187.5 77t-78.5 185q0 110 78.5 188t187.5 78zM567 1243q0 75 -53.5 128.5t-128.5 53.5q-77 0 -131.5 -53.5t-54.5 -128.5q0 -76 54.5 -129t131.5 -53q75 0 128.5 53t53.5 129z" />
    <glyph glyph-name="plusminus" unicode="&#xb1;" horiz-adv-x="1245" 
d="M696 774h451v-166h-451v-321h-164v321h-448v166h448v322h164v-322zM84 0v164h1063v-164h-1063z" />
    <glyph glyph-name="twosuperior" unicode="&#xb2;" horiz-adv-x="552" 
d="M424 950h35l-47 -174h-349l213 311q68 115 22 191q-31 51 -91 55q-65 4 -104 -51q-6 -9 -11 -20l-33 6q6 49 27.5 85t48 52.5t52.5 25.5t43 10l18 1q69 0 114.5 -45t45.5 -109q0 -47 -23.5 -96t-79.5 -117l-123 -178h158q55 0 84 53z" />
    <glyph glyph-name="threesuperior" unicode="&#xb3;" horiz-adv-x="565" 
d="M483 993q3 -59 -19 -106t-58.5 -73t-74 -39t-71.5 -13q-98 0 -164 53q-15 10 -22 31t-2 41q6 29 31.5 45t54.5 10q29 -7 45 -33t10 -55q-10 -31 -35 -41q-10 -4 8 -10q23 -8 74 -8q58 0 88 50t19 105q-22 121 -174 140v36q55 17 85.5 45.5t34.5 58t-6.5 56t-32.5 43.5
q-32 29 -80 19t-73 -62l-35 4q5 43 24 74t43 45.5t47 22.5t38 9l16 1q40 0 76.5 -15.5t60 -44t31.5 -64.5t-9.5 -80.5t-62.5 -88.5q62 -22 96 -66t37 -90z" />
    <glyph glyph-name="acute" unicode="&#xb4;" horiz-adv-x="761" 
d="M178 1143l346 334l230 -72l-500 -262h-76z" />
    <glyph glyph-name="mu" unicode="&#xb5;" horiz-adv-x="1140" 
d="M997 188q0 -71 18.5 -89.5t86.5 -26.5v-35l-303 -53q-24 -4 -38.5 6t-16.5 22l-3 11v180q-37 -88 -143 -154.5t-207 -66.5v-304q0 -74 21 -99.5t86 -31.5v-34l-301 -54q-26 -4 -41 5.5t-17 21.5l-2 12v1235v14q0 34 -0.5 48.5t-4 34t-9.5 26t-19.5 15.5t-32 12.5
t-48.5 7.5v35l368 39v-664q0 -87 41.5 -128.5t130.5 -41.5q45 0 96 37t82 96v463q0 95 -5 114q-9 32 -50 43q-16 4 -41 7v35l352 39v-777z" />
    <glyph glyph-name="paragraph" unicode="&#xb6;" horiz-adv-x="1345" 
d="M1190 1407q-73 0 -120.5 -89t-47.5 -202v-1323q0 -126 41.5 -213.5t112.5 -87.5v-35h-297v1985h311v-35zM590 1442h143v-1985h-420v35q35 0 67 5.5t71.5 24.5t68.5 50t48.5 88t19.5 133v821q-90 0 -161 9.5t-139 37t-113 72t-72 118.5t-27 173q0 98 30 173t78.5 120
t117.5 74t137.5 39.5t148.5 11.5h2z" />
    <glyph glyph-name="periodcentered" unicode="&#xb7;" 
d="M406 612q0 -51 -36 -87t-87 -36t-87 36t-36 87t36 87t87 36t87 -36t36 -87z" />
    <glyph glyph-name="cedilla" unicode="&#xb8;" 
d="M246 -8h35l-41 -121q70 15 120.5 5.5t82 -38t45 -66t8.5 -77.5q-6 -48 -31 -83.5t-58.5 -53t-65 -25.5t-60.5 -8q-50 0 -89.5 14t-56.5 29q-12 9 -18.5 27t-3.5 36q6 26 28.5 39.5t48.5 7.5t40 -26.5t10 -48.5q-3 -18 -17 -29q-3 -3 0 -6t17.5 -6.5t40.5 -3.5
q49 0 76.5 31t25.5 79q0 17 -10 41.5t-31 52t-63.5 42.5t-96.5 6z" />
    <glyph glyph-name="onesuperior" unicode="&#xb9;" horiz-adv-x="475" 
d="M307 891q0 -26 7.5 -42.5t21 -23.5t25.5 -9.5t28 -2.5v-35h-301v35q94 0 94 78v356q0 34 -19.5 40.5t-38.5 -3.5l-20 -10l-24 35l194 133h33v-551z" />
    <glyph glyph-name="ordmasculine" unicode="&#xba;" horiz-adv-x="673" 
d="M336 1448q76 0 129 -27t81.5 -76.5t41 -109t12.5 -135.5q0 -75 -12.5 -132.5t-41 -105t-81.5 -73t-129 -25.5q-77 0 -130.5 25.5t-82 73t-41 105t-12.5 132.5q0 76 12.5 135.5t41 109t82.5 76.5t130 27zM336 799q41 0 63.5 20t37 87.5t14.5 193.5t-15 197t-38.5 93.5
t-61.5 22.5q-40 0 -64 -22.5t-38.5 -93t-14.5 -197.5q0 -95 7.5 -156.5t24 -92t36 -41.5t49.5 -11z" />
    <glyph glyph-name="guillemotright" unicode="&#xbb;" horiz-adv-x="1247" 
d="M590 954v80l473 -489l-473 -477v79l252 398zM172 954v80l473 -489l-473 -477v79l250 398z" />
    <glyph glyph-name="onequarter" unicode="&#xbc;" horiz-adv-x="1339" 
d="M246 1319q0 22 -8.5 32.5t-20.5 9.5t-24 -5t-21 -10l-8 -5l-23 33l199 154h35v-643q0 -29 7 -47t21.5 -25t25 -8.5t28.5 -1.5v-35h-307v35q20 0 33.5 2t30 9.5t24.5 25t8 45.5v434zM1194 211h-111v-41q0 -38 5.5 -65t13 -40.5t21.5 -20.5t24 -8t27 -1v-35h-336v35
q21 0 33.5 3t27.5 14.5t22 40t7 73.5v45h-248v18l348 523l55 -7v-460h111v-74zM928 285v250l-129 -193q-12 -20 -15.5 -32.5t2.5 -17.5t11 -6t16 -1h115zM1167 1450h133l-1140 -1376h-131z" />
    <glyph glyph-name="onehalf" unicode="&#xbd;" horiz-adv-x="1341" 
d="M1221 199h34l-55 -199h-395l242 356q75 126 28 211q-31 57 -97 65q-70 8 -116 -47q-13 -15 -22 -34l-33 10q6 56 30 97.5t53 60.5t57.5 30t47.5 12l19 1q80 0 131 -52t51 -126q0 -52 -28 -107.5t-93 -134.5l-141 -203h182q29 0 59 15.5t46 44.5zM1167 1450h133
l-1140 -1376h-131zM246 1319q0 22 -8.5 32.5t-20.5 9.5t-24 -5t-21 -10l-8 -5l-23 33l199 154h35v-643q0 -29 7 -47t21.5 -25t25 -8.5t28.5 -1.5v-35h-307v35q20 0 33.5 2t30 9.5t24.5 25t8 45.5v434z" />
    <glyph glyph-name="threequarters" unicode="&#xbe;" horiz-adv-x="1343" 
d="M1167 1450h133l-1140 -1376h-131zM555 1022q0 -58 -17 -104t-43.5 -74.5t-61 -47.5t-66.5 -26.5t-62 -7.5q-116 0 -188 57q-17 12 -24.5 35t-2.5 45q6 33 34.5 51.5t61.5 12.5q34 -9 52 -38t12 -63q-14 -34 -29 -41q-10 -4 3 -12q22 -12 81 -12q39 0 66 16.5t38 42t15 57
t-2 62.5q-4 18 -7.5 30.5t-17.5 38t-33 43t-55.5 34t-83.5 22.5v31q62 19 97 51t39.5 65t-7 63t-35.5 48q-25 18 -57 20t-64 -17t-51 -58l-36 12q6 48 27 83t47 51t51 25t42 10l17 1q57 0 105 -28t72.5 -72.5t9 -107t-78.5 -122.5q68 -20 107.5 -71.5t44.5 -104.5zM1194 211
h-111v-41q0 -38 5.5 -65t13 -40.5t21.5 -20.5t24 -8t27 -1v-35h-336v35q21 0 33.5 3t27.5 14.5t22 40t7 73.5v45h-248v18l348 523l55 -7v-460h111v-74zM928 285v250l-129 -193q-12 -20 -15.5 -32.5t2.5 -17.5t11 -6t16 -1h115z" />
    <glyph glyph-name="questiondown" unicode="&#xbf;" horiz-adv-x="1239" 
d="M672 627q-72 0 -123 50t-51 122t51 123t123 51t122 -51t50 -123t-50 -122t-122 -50zM207 -219q-3 86 15 158.5t49 120.5t73 85t80.5 56.5t77.5 29.5q84 22 129.5 86.5t38.5 155.5l53 8q6 -38 6.5 -71t-7 -79t-35 -91.5t-73.5 -83.5q-73 -62 -98 -144t-12 -223
q5 -69 31 -122t65 -84.5t87.5 -46.5t101.5 -12t104 23q29 12 38.5 31.5t4 33.5t-15.5 15q-49 6 -86 56q-32 48 -22.5 104t54.5 90q46 32 103.5 20t91.5 -59q38 -52 14 -141q-10 -45 -56 -98t-116 -84q-119 -53 -244.5 -55.5t-222 36t-160.5 114.5t-69 171z" />
    <glyph glyph-name="Agrave" unicode="&#xc0;" horiz-adv-x="1449" 
d="M1249 184q15 -34 28.5 -59.5t27.5 -41t23.5 -25.5t25 -14.5t22 -6t23.5 -2t22 -0.5v-35h-585v35q45 0 67 22.5t21 54.5t-8 64.5t-17 55.5l-10 22l-62 149h-485q-3 -8 -6.5 -22t-10.5 -53.5t-8 -75t9 -78.5t32 -73.5t68.5 -49.5t112.5 -16v-35h-504v35q36 3 54 14
q74 47 213 370q18 42 38 89l354 934h35zM348 438h467l-244 598zM647 1839l346 -334h-75l-500 262z" />
    <glyph glyph-name="Aacute" unicode="&#xc1;" horiz-adv-x="1449" 
d="M1249 184q15 -34 28.5 -59.5t27.5 -41t23.5 -25.5t25 -14.5t22 -6t23.5 -2t22 -0.5v-35h-585v35q45 0 67 22.5t21 54.5t-8 64.5t-17 55.5l-10 22l-62 149h-485q-3 -8 -6.5 -22t-10.5 -53.5t-8 -75t9 -78.5t32 -73.5t68.5 -49.5t112.5 -16v-35h-504v35q36 3 54 14
q74 47 213 370q18 42 38 89l354 934h35zM348 438h467l-244 598zM457 1505l346 334l230 -72l-500 -262h-76z" />
    <glyph glyph-name="Acircumflex" unicode="&#xc2;" horiz-adv-x="1449" 
d="M1249 184q15 -34 28.5 -59.5t27.5 -41t23.5 -25.5t25 -14.5t22 -6t23.5 -2t22 -0.5v-35h-585v35q45 0 67 22.5t21 54.5t-8 64.5t-17 55.5l-10 22l-62 149h-485q-3 -8 -6.5 -22t-10.5 -53.5t-8 -75t9 -78.5t32 -73.5t68.5 -49.5t112.5 -16v-35h-504v35q36 3 54 14
q74 47 213 370q18 42 38 89l354 934h35zM348 438h467l-244 598zM469 1505h-74l318 383l317 -383h-76l-241 158z" />
    <glyph glyph-name="Atilde" unicode="&#xc3;" horiz-adv-x="1449" 
d="M809 1536l-246 88q-28 10 -70.5 11t-89 -8t-87.5 -35t-60 -66l-31 12q30 73 67.5 127t74 83t74 47t69 21.5t56 3t38.5 -3.5l14 -4l244 -90q65 -23 169 3.5t140 101.5l31 -17q-30 -73 -68 -127t-74.5 -83t-73.5 -47t-68.5 -21.5t-56 -3t-38.5 3.5zM1249 184
q15 -34 28.5 -59.5t27.5 -41t23.5 -25.5t25 -14.5t22 -6t23.5 -2t22 -0.5v-35h-585v35q45 0 67 22.5t21 54.5t-8 64.5t-17 55.5l-10 22l-62 149h-485q-3 -8 -6.5 -22t-10.5 -53.5t-8 -75t9 -78.5t32 -73.5t68.5 -49.5t112.5 -16v-35h-504v35q36 3 54 14q74 47 213 370
q18 42 38 89l354 934h35zM348 438h467l-244 598z" />
    <glyph glyph-name="Adieresis" unicode="&#xc4;" horiz-adv-x="1449" 
d="M524 1585q-50 0 -85.5 35t-35.5 86q0 50 35.5 85.5t85.5 35.5q51 0 86 -35.5t35 -85.5q0 -51 -35 -86t-86 -35zM909 1585q-50 0 -85.5 35t-35.5 86q0 50 36 85.5t85 35.5q51 0 87 -35.5t36 -85.5q0 -51 -36 -86t-87 -35zM1249 184q15 -34 28.5 -59.5t27.5 -41t23.5 -25.5
t25 -14.5t22 -6t23.5 -2t22 -0.5v-35h-585v35q45 0 67 22.5t21 54.5t-8 64.5t-17 55.5l-10 22l-62 149h-485q-3 -8 -6.5 -22t-10.5 -53.5t-8 -75t9 -78.5t32 -73.5t68.5 -49.5t112.5 -16v-35h-504v35q36 3 54 14q74 47 213 370q18 42 38 89l354 934h35zM348 438h467
l-244 598z" />
    <glyph glyph-name="Aring" unicode="&#xc5;" horiz-adv-x="1449" 
d="M717 1587q-89 0 -152 63t-63 152t63 153t152 64t153 -64t64 -153t-64 -152t-153 -63zM717 1925q-51 0 -87 -36t-36 -87t36 -87t87 -36q52 0 87.5 36t35.5 87t-35.5 87t-87.5 36zM1249 184q15 -34 28.5 -59.5t27.5 -41t23.5 -25.5t25 -14.5t22 -6t23.5 -2t22 -0.5v-35
h-585v35q45 0 67 22.5t21 54.5t-8 64.5t-17 55.5l-10 22l-62 149h-485q-3 -8 -6.5 -22t-10.5 -53.5t-8 -75t9 -78.5t32 -73.5t68.5 -49.5t112.5 -16v-35h-504v35q36 3 54 14q74 47 213 370q18 42 38 89l354 934h35zM348 438h467l-244 598z" />
    <glyph glyph-name="AE" unicode="&#xc6;" horiz-adv-x="2039" 
d="M918 530v629q0 61 -9 107l-415 -736h424zM1878 442h35v-442h-1151v35q37 0 62 8.5t48 33t34.5 75t11.5 127.5v217h-439q-40 -75 -65.5 -137.5t-37 -107.5t-10 -80.5t7.5 -57.5t24.5 -38t33 -23.5t40 -11.5t37.5 -4.5t34 -0.5h8v-35h-526v35q20 1 40 9.5t59.5 41t84.5 86
t113 155t147 238.5l424 752q-12 30 -30.5 49.5t-42.5 27.5t-43.5 10.5t-47.5 2.5v35h1155v-391h-35q-9 73 -45 131.5t-86 95t-108 63t-114.5 38.5t-102.5 19t-75 8l-28 1h-73v-666h73h15.5t38 4t54.5 11t58.5 22.5t57 37.5t43.5 57.5t24 80.5h35v-458h-35q-5 44 -23.5 79.5
t-44.5 57t-56 37.5t-59.5 22.5t-53.5 10.5t-39 4h-15h-73v-672h73q11 0 29.5 1t72.5 9t105 21.5t115.5 44t114.5 72t92.5 109t58.5 150.5z" />
    <glyph glyph-name="Ccedilla" unicode="&#xc7;" horiz-adv-x="1411" 
d="M1323 109q-109 -72 -232.5 -99.5t-297.5 -27.5l-39 -115q70 15 120.5 5.5t82 -38t45 -66t8.5 -77.5q-6 -48 -31 -83.5t-58.5 -53t-65 -25.5t-60.5 -8q-50 0 -89.5 14t-56.5 29q-12 9 -18.5 27t-3.5 36q6 26 29 39.5t49 7.5t39.5 -26.5t9.5 -48.5q-3 -18 -17 -29
q-3 -3 0 -6t17.5 -6.5t40.5 -3.5q49 0 76.5 31t25.5 79q0 13 -5.5 31.5t-20.5 41t-36.5 40.5t-58 26.5t-80.5 1.5l62 177q-153 6 -281.5 66.5t-214 160t-133 231.5t-47.5 281q0 153 50 287.5t140.5 235t225.5 158.5t295 58q180 0 310.5 -26.5t219.5 -98.5l-29 -321h-34
q-90 217 -194.5 314t-272.5 97q-89 0 -150 -31.5t-105.5 -109.5t-65.5 -216.5t-21 -346.5t21.5 -347t67 -217t106 -109.5t147.5 -31.5q176 0 300.5 118.5t166.5 295.5h34z" />
    <glyph glyph-name="Egrave" unicode="&#xc8;" horiz-adv-x="1327" 
d="M1174 446h34v-446h-1153v35q61 0 90 67t29 179v878q0 68 -10.5 121t-38 90t-70.5 37v35h1127v-389h-35q-10 72 -48 130.5t-92 94.5t-116.5 62.5t-123.5 39t-111 19t-80 7.5l-31 1h-74v-662h74q7 0 18 0.5t44 4.5t63 11.5t67.5 23.5t65.5 37.5t49 57t25 78.5h34v-460h-34
q-4 43 -24.5 78.5t-50 57t-64.5 37.5t-69 23.5t-61.5 11.5t-45.5 4l-17 1h-74v-676h74q11 0 31 1t78 9t112 22t123.5 44.5t123 72.5t98.5 110t63 152zM563 1839l346 -334h-75l-500 262z" />
    <glyph glyph-name="Eacute" unicode="&#xc9;" horiz-adv-x="1327" 
d="M1174 446h34v-446h-1153v35q61 0 90 67t29 179v878q0 68 -10.5 121t-38 90t-70.5 37v35h1127v-389h-35q-10 72 -48 130.5t-92 94.5t-116.5 62.5t-123.5 39t-111 19t-80 7.5l-31 1h-74v-662h74q7 0 18 0.5t44 4.5t63 11.5t67.5 23.5t65.5 37.5t49 57t25 78.5h34v-460h-34
q-4 43 -24.5 78.5t-50 57t-64.5 37.5t-69 23.5t-61.5 11.5t-45.5 4l-17 1h-74v-676h74q11 0 31 1t78 9t112 22t123.5 44.5t123 72.5t98.5 110t63 152zM334 1505l346 334l229 -72l-499 -262h-76z" />
    <glyph glyph-name="Ecircumflex" unicode="&#xca;" horiz-adv-x="1327" 
d="M1174 446h34v-446h-1153v35q61 0 90 67t29 179v878q0 68 -10.5 121t-38 90t-70.5 37v35h1127v-389h-35q-10 72 -48 130.5t-92 94.5t-116.5 62.5t-123.5 39t-111 19t-80 7.5l-31 1h-74v-662h74q7 0 18 0.5t44 4.5t63 11.5t67.5 23.5t65.5 37.5t49 57t25 78.5h34v-460h-34
q-4 43 -24.5 78.5t-50 57t-64.5 37.5t-69 23.5t-61.5 11.5t-45.5 4l-17 1h-74v-676h74q11 0 31 1t78 9t112 22t123.5 44.5t123 72.5t98.5 110t63 152zM387 1505h-74l318 383l317 -383h-76l-241 158z" />
    <glyph glyph-name="Edieresis" unicode="&#xcb;" horiz-adv-x="1327" 
d="M430 1585q-50 0 -85.5 35t-35.5 86q0 50 35.5 85.5t85.5 35.5q51 0 86 -35.5t35 -85.5q0 -51 -35 -86t-86 -35zM815 1585q-50 0 -85.5 35t-35.5 86q0 50 36 85.5t85 35.5q51 0 87 -35.5t36 -85.5q0 -51 -36 -86t-87 -35zM1174 446h34v-446h-1153v35q61 0 90 67t29 179
v878q0 68 -10.5 121t-38 90t-70.5 37v35h1127v-389h-35q-10 72 -48 130.5t-92 94.5t-116.5 62.5t-123.5 39t-111 19t-80 7.5l-31 1h-74v-662h74q7 0 18 0.5t44 4.5t63 11.5t67.5 23.5t65.5 37.5t49 57t25 78.5h34v-460h-34q-4 43 -24.5 78.5t-50 57t-64.5 37.5t-69 23.5
t-61.5 11.5t-45.5 4l-17 1h-74v-676h74q11 0 31 1t78 9t112 22t123.5 44.5t123 72.5t98.5 110t63 152z" />
    <glyph glyph-name="Igrave" unicode="&#xcc;" horiz-adv-x="794" 
d="M76 1442h645v-35q-72 0 -123 -46.5t-51 -135.5v-975q0 -100 52 -157.5t122 -57.5v-35h-645v35q70 0 122 57.5t52 157.5v975q0 90 -50 136t-124 46v35zM319 1839l347 -334h-76l-500 262z" />
    <glyph glyph-name="Iacute" unicode="&#xcd;" horiz-adv-x="794" 
d="M721 1442h-645v-35q74 0 124 -46t50 -136v-975q0 -100 -52 -157.5t-122 -57.5v-35h645v35q-70 0 -122 57.5t-52 157.5v975q0 89 51 135.5t123 46.5v35zM109 1505l346 334l229 -72l-500 -262h-75z" />
    <glyph glyph-name="Icircumflex" unicode="&#xce;" horiz-adv-x="794" 
d="M76 1442h645v-35q-72 0 -123 -46.5t-51 -135.5v-975q0 -100 52 -157.5t122 -57.5v-35h-645v35q70 0 122 57.5t52 157.5v975q0 90 -50 136t-124 46v35zM156 1505h-74l317 383l318 -383h-76l-242 158z" />
    <glyph glyph-name="Idieresis" unicode="&#xcf;" horiz-adv-x="794" 
d="M207 1585q-50 0 -85.5 35t-35.5 86q0 50 36 85.5t85 35.5q51 0 86 -35.5t35 -85.5q0 -51 -35 -86t-86 -35zM592 1585q-50 0 -85.5 35t-35.5 86q0 50 35.5 85.5t85.5 35.5q51 0 87 -35.5t36 -85.5q0 -51 -36 -86t-87 -35zM721 1442h-645v-35q74 0 124 -46t50 -136v-975
q0 -100 -52 -157.5t-122 -57.5v-35h645v35q-70 0 -122 57.5t-52 157.5v975q0 89 51 135.5t123 46.5v35z" />
    <glyph glyph-name="Eth" unicode="&#xd0;" horiz-adv-x="1564" 
d="M70 702v37h151v420q0 99 -43.5 173.5t-109.5 74.5v35h540q93 0 176.5 -8.5t171.5 -31t161 -57.5t139 -92t111.5 -131t72 -178t26.5 -229q0 -715 -858 -715h-540v35q66 0 109.5 70.5t43.5 175.5v421h-151zM608 35q51 0 91.5 4t95 19.5t95.5 43t84 78.5t70.5 121t45.5 176
t18 238q0 133 -17.5 239.5t-45.5 177.5t-71 123.5t-84.5 81t-95 45t-95 21t-91.5 4.5h-90v-668h299v-37h-299v-667h90z" />
    <glyph glyph-name="Ntilde" unicode="&#xd1;" horiz-adv-x="1720" 
d="M958 1536l-245 88q-28 10 -70.5 11t-89 -8t-87.5 -35t-60 -66l-31 12q30 73 67.5 127t74 83t74 47t69 21.5t56 3t38.5 -3.5l14 -4l244 -90q65 -23 169 3.5t140 101.5l31 -17q-30 -73 -68 -127t-74.5 -83t-74 -47t-69 -21.5t-56 -3t-38.5 3.5zM1065 1442h621v-35
q-63 0 -114 -26.5t-82 -69t-54 -94.5t-33 -103.5t-16 -94.5t-7 -70v-27v-922h-108l-895 1124v-602q0 -10 0.5 -27.5t5.5 -68t14.5 -96.5t30.5 -102.5t49.5 -97t75 -68t104.5 -27.5v-35h-622v35q63 0 114 27t82 70t54 94.5t33.5 103.5t16.5 95t7 70v27v639l-80 101
q-31 39 -60.5 67t-48.5 42.5t-43 23t-34 10t-31.5 2t-26.5 0.5v35h502l826 -1018v498q0 10 -0.5 27.5t-6 68t-15 96.5t-30.5 102t-49.5 96.5t-75 67.5t-104.5 27v35z" />
    <glyph glyph-name="Ograve" unicode="&#xd2;" horiz-adv-x="1589" 
d="M791 1460q165 0 300 -60t223 -162.5t135.5 -238t47.5 -288.5q0 -154 -47.5 -286.5t-135.5 -231t-223 -155t-300 -56.5t-300 56.5t-223.5 155t-136 231.5t-47.5 286t48 288.5t136 238t223 162.5t300 60zM791 16q76 0 130 18.5t98 64t70 124.5t40 199.5t14 288.5
q0 210 -20.5 348.5t-65.5 219t-108.5 113.5t-157.5 33q-76 0 -131 -20.5t-99.5 -69t-71.5 -130.5t-41 -204t-14 -290q0 -210 20.5 -346t67 -213t110 -106.5t159.5 -29.5zM721 1839l346 -334h-76l-499 262z" />
    <glyph glyph-name="Oacute" unicode="&#xd3;" horiz-adv-x="1589" 
d="M791 1460q165 0 300 -60t223 -162.5t135.5 -238t47.5 -288.5q0 -154 -47.5 -286.5t-135.5 -231t-223 -155t-300 -56.5t-300 56.5t-223.5 155t-136 231.5t-47.5 286t48 288.5t136 238t223 162.5t300 60zM791 16q76 0 130 18.5t98 64t70 124.5t40 199.5t14 288.5
q0 210 -20.5 348.5t-65.5 219t-108.5 113.5t-157.5 33q-76 0 -131 -20.5t-99.5 -69t-71.5 -130.5t-41 -204t-14 -290q0 -210 20.5 -346t67 -213t110 -106.5t159.5 -29.5zM504 1505l346 334l230 -72l-500 -262h-76z" />
    <glyph glyph-name="Ocircumflex" unicode="&#xd4;" horiz-adv-x="1589" 
d="M791 1460q165 0 300 -60t223 -162.5t135.5 -238t47.5 -288.5q0 -154 -47.5 -286.5t-135.5 -231t-223 -155t-300 -56.5t-300 56.5t-223.5 155t-136 231.5t-47.5 286t48 288.5t136 238t223 162.5t300 60zM791 16q76 0 130 18.5t98 64t70 124.5t40 199.5t14 288.5
q0 210 -20.5 348.5t-65.5 219t-108.5 113.5t-157.5 33q-76 0 -131 -20.5t-99.5 -69t-71.5 -130.5t-41 -204t-14 -290q0 -210 20.5 -346t67 -213t110 -106.5t159.5 -29.5zM555 1505h-74l318 383l317 -383h-76l-241 158z" />
    <glyph glyph-name="Otilde" unicode="&#xd5;" horiz-adv-x="1589" 
d="M895 1536l-246 88q-28 10 -70.5 11t-89 -8t-87.5 -35t-60 -66l-31 12q30 73 67.5 127t74 83t74 47t69 21.5t56.5 3t39 -3.5l14 -4l243 -90q65 -23 169 3.5t140 101.5l31 -17q-30 -73 -68 -127t-74.5 -83t-73.5 -47t-68.5 -21.5t-56 -3t-38.5 3.5zM791 1460q165 0 300 -60
t223 -162.5t135.5 -238t47.5 -288.5q0 -154 -47.5 -286.5t-135.5 -231t-223 -155t-300 -56.5t-300 56.5t-223.5 155t-136 231.5t-47.5 286t48 288.5t136 238t223 162.5t300 60zM791 16q76 0 130 18.5t98 64t70 124.5t40 199.5t14 288.5q0 210 -20.5 348.5t-65.5 219
t-108.5 113.5t-157.5 33q-76 0 -131 -20.5t-99.5 -69t-71.5 -130.5t-41 -204t-14 -290q0 -210 20.5 -346t67 -213t110 -106.5t159.5 -29.5z" />
    <glyph glyph-name="Odieresis" unicode="&#xd6;" horiz-adv-x="1589" 
d="M600 1585q-50 0 -85.5 35t-35.5 86q0 50 35.5 85.5t85.5 35.5q51 0 86 -35.5t35 -85.5q0 -51 -35 -86t-86 -35zM985 1585q-50 0 -85.5 35t-35.5 86q0 50 36 85.5t85 35.5q51 0 87 -35.5t36 -85.5q0 -51 -36 -86t-87 -35zM791 1460q165 0 300 -60t223 -162.5t135.5 -238
t47.5 -288.5q0 -154 -47.5 -286.5t-135.5 -231t-223 -155t-300 -56.5t-300 56.5t-223.5 155t-136 231.5t-47.5 286t48 288.5t136 238t223 162.5t300 60zM791 16q76 0 130 18.5t98 64t70 124.5t40 199.5t14 288.5q0 210 -20.5 348.5t-65.5 219t-108.5 113.5t-157.5 33
q-76 0 -131 -20.5t-99.5 -69t-71.5 -130.5t-41 -204t-14 -290q0 -210 20.5 -346t67 -213t110 -106.5t159.5 -29.5z" />
    <glyph glyph-name="multiply" unicode="&#xd7;" horiz-adv-x="1228" 
d="M1106 885l-365 -365l365 -364l-127 -129l-365 364l-364 -364l-129 129l364 364l-364 365l129 129l364 -365l365 365z" />
    <glyph glyph-name="Oslash" unicode="&#xd8;" horiz-adv-x="1591" 
d="M791 1460q207 0 368 -96l98 162h43l-110 -180q147 -100 227 -268t80 -367q0 -154 -47.5 -286.5t-135.5 -231t-223 -155t-300 -56.5q-214 0 -373 92l-88 -146h-43l100 164q-147 96 -225 257.5t-78 361.5q0 153 48 288.5t136 238t223 162.5t300 60zM434 711q0 -315 47 -463
l598 983q-41 105 -111 149.5t-177 44.5q-76 0 -131 -20.5t-99.5 -69t-71.5 -130.5t-41 -204t-14 -290zM791 16q76 0 130 18.5t98 64t70 124.5t40 199.5t14 288.5q0 310 -49 475l-598 -983q41 -103 112.5 -145t182.5 -42z" />
    <glyph glyph-name="Ugrave" unicode="&#xd9;" horiz-adv-x="1540" 
d="M696 1839l346 -334h-75l-500 262zM1507 1442v-35q-63 0 -114 -16.5t-82 -43.5t-53.5 -60t-33 -66t-16 -60t-6.5 -44v-17v-608q0 -91 -19 -166t-49.5 -127t-74 -91.5t-88.5 -63t-96.5 -38t-93.5 -19.5t-85 -5q-141 0 -255 59.5t-183.5 180t-69.5 282.5v723
q0 89 -45.5 134.5t-117.5 45.5v35h651v-35q-37 0 -68 -8t-60 -26.5t-46 -55.5t-17 -90v-738q0 -177 97 -281t247 -104q60 0 119 25t108.5 71.5t80 122.5t30.5 169v608q0 6 -0.5 17.5t-5.5 43.5t-14 61t-30 64.5t-49 61t-74.5 42.5t-104.5 17v35h618z" />
    <glyph glyph-name="Uacute" unicode="&#xda;" horiz-adv-x="1540" 
d="M1507 1442v-35q-63 0 -114 -16.5t-82 -43.5t-53.5 -60t-33 -66t-16 -60t-6.5 -44v-17v-608q0 -91 -19 -166t-49.5 -127t-74 -91.5t-88.5 -63t-96.5 -38t-93.5 -19.5t-85 -5q-141 0 -255 59.5t-183.5 180t-69.5 282.5v723q0 89 -45.5 134.5t-117.5 45.5v35h651v-35
q-37 0 -68 -8t-60 -26.5t-46 -55.5t-17 -90v-738q0 -177 97 -281t247 -104q60 0 119 25t108.5 71.5t80 122.5t30.5 169v608q0 6 -0.5 17.5t-5.5 43.5t-14 61t-30 64.5t-49 61t-74.5 42.5t-104.5 17v35h618zM504 1505l346 334l229 -72l-499 -262h-76z" />
    <glyph glyph-name="Ucircumflex" unicode="&#xdb;" horiz-adv-x="1540" 
d="M535 1505h-74l317 383l318 -383h-76l-242 158zM1507 1442v-35q-63 0 -114 -16.5t-82 -43.5t-53.5 -60t-33 -66t-16 -60t-6.5 -44v-17v-608q0 -91 -19 -166t-49.5 -127t-74 -91.5t-88.5 -63t-96.5 -38t-93.5 -19.5t-85 -5q-141 0 -255 59.5t-183.5 180t-69.5 282.5v723
q0 89 -45.5 134.5t-117.5 45.5v35h651v-35q-37 0 -68 -8t-60 -26.5t-46 -55.5t-17 -90v-738q0 -177 97 -281t247 -104q60 0 119 25t108.5 71.5t80 122.5t30.5 169v608q0 6 -0.5 17.5t-5.5 43.5t-14 61t-30 64.5t-49 61t-74.5 42.5t-104.5 17v35h618z" />
    <glyph glyph-name="Udieresis" unicode="&#xdc;" horiz-adv-x="1540" 
d="M578 1585q-50 0 -85.5 35t-35.5 86q0 50 35.5 85.5t85.5 35.5q51 0 85.5 -35.5t34.5 -85.5q0 -51 -34.5 -86t-85.5 -35zM963 1585q-50 0 -85.5 35t-35.5 86q0 50 36 85.5t85 35.5q51 0 86.5 -35.5t35.5 -85.5q0 -51 -35.5 -86t-86.5 -35zM1507 1442v-35q-63 0 -114 -16.5
t-82 -43.5t-53.5 -60t-33 -66t-16 -60t-6.5 -44v-17v-608q0 -91 -19 -166t-49.5 -127t-74 -91.5t-88.5 -63t-96.5 -38t-93.5 -19.5t-85 -5q-141 0 -255 59.5t-183.5 180t-69.5 282.5v723q0 89 -45.5 134.5t-117.5 45.5v35h651v-35q-37 0 -68 -8t-60 -26.5t-46 -55.5t-17 -90
v-738q0 -177 97 -281t247 -104q60 0 119 25t108.5 71.5t80 122.5t30.5 169v608q0 6 -0.5 17.5t-5.5 43.5t-14 61t-30 64.5t-49 61t-74.5 42.5t-104.5 17v35h618z" />
    <glyph glyph-name="Yacute" unicode="&#xdd;" horiz-adv-x="1579" 
d="M938 1442h614v-35q-17 0 -31.5 -1.5t-47 -10.5t-62 -25t-72.5 -49.5t-83.5 -80t-90 -120.5t-96.5 -166l-135 -284v-422q0 -99 52 -156t122 -57v-35h-645v35q70 0 122 57t52 156v317q-134 236 -233.5 406.5t-132.5 222.5l-33 53q-32 55 -64 90.5t-62 49.5t-49.5 18
t-44.5 4v33h654v-33q-15 0 -24 -0.5t-28 -4.5t-29 -12t-19 -25.5t-6.5 -41t16.5 -62t43 -87.5l288 -471l138 284q2 5 6 14.5t13.5 38t17 56t13.5 65.5t6 70t-8.5 65t-27 56.5t-52.5 38t-81 14.5v35zM563 1505l346 334l230 -72l-500 -262h-76z" />
    <glyph glyph-name="Thorn" unicode="&#xde;" horiz-adv-x="1361" 
d="M528 1145v-752h74q40 0 65.5 1t60.5 4.5t57 10.5t49.5 20.5t44.5 32t34.5 47t27.5 64.5t16 85t6 108q0 60 -6 109t-16 86t-27.5 65.5t-34.5 48t-44 33t-49.5 20.5t-57 11t-60.5 5t-66 1h-74zM602 358h-74v-110q0 -99 51.5 -156t120.5 -57v-35h-645v35q70 0 122 57t52 156
v977q0 90 -50 136t-124 46v35h645v-35q-72 0 -122 -46t-50 -136v-45h74q131 0 230 -10t190 -37.5t149.5 -73t92.5 -119.5t34 -174q0 -72 -17.5 -130t-48.5 -100.5t-79.5 -73.5t-104.5 -51t-130 -32t-148.5 -16.5t-167.5 -4.5z" />
    <glyph glyph-name="germandbls" unicode="&#xdf;" horiz-adv-x="1277" 
d="M760 860q35 0 80.5 -10t99.5 -30.5t105 -56.5t93 -83t67.5 -115.5t25.5 -148.5q0 -71 -15 -132.5t-51 -118t-91 -96.5t-140.5 -63.5t-194.5 -23.5q-155 0 -213 71q-23 25 -32 62t0 71q13 49 57 73t94 9q47 -13 71.5 -57.5t10.5 -91.5q-16 -53 -59 -72q-14 -7 0 -18
q18 -13 71 -13q41 0 73.5 15t53.5 37t36 59.5t22.5 70t12 81.5t5 80.5t0.5 80.5q0 90 -36.5 167.5t-92 125.5t-116.5 75.5t-113 27.5v34q36 0 64.5 7t57 28t47 56t30.5 93.5t12 137.5q0 63 -10 113t-24.5 81.5t-37 54t-40 32.5t-41.5 15.5t-34 6t-24 0.5h-4q-54 0 -93 -46
t-56.5 -111.5t-27 -131t-9.5 -111.5l-1 -46v-1049h-336v35q53 17 67.5 68t14.5 147v749q0 244 112 387.5t329 143.5q49 0 89.5 -2.5t88 -11.5t84.5 -24.5t72.5 -42t59 -62.5t38 -88.5t14.5 -118.5q0 -73 -24 -132.5t-57.5 -93t-73.5 -56t-67.5 -30.5t-43.5 -8z" />
    <glyph glyph-name="agrave" unicode="&#xe0;" horiz-adv-x="1077" 
d="M614 211v276q-268 -60 -268 -245q0 -6 1 -15t8 -32.5t19.5 -41.5t40 -32.5t64.5 -14.5q48 0 84 31.5t51 73.5zM971 106q5 0 12.5 1t22.5 9.5t20 24.5l35 -14q-13 -54 -81 -99.5t-159 -45.5q-7 0 -19.5 1t-45 9.5t-59 24t-51 50t-30.5 80.5q-24 -69 -107.5 -117
t-189.5 -48q-5 0 -13.5 0.5t-33 4.5t-46.5 11t-49 22.5t-46.5 36.5t-33 55.5t-13.5 77.5q0 34 6 62t15 51t28 42.5t36.5 34t50 29.5t58.5 25t72 23t80.5 21.5t94.5 23.5q58 14 89 22v127q0 159 -77 230.5t-183 15.5q-58 -29 -64 -58q-3 -11 5 -12q50 -6 76 -45
q27 -40 18 -86.5t-49 -74.5q-40 -27 -87 -18t-75 48q-18 29 -19.5 63t13.5 60q31 54 63 84q38 35 97 66q41 22 90.5 32t78.5 10l29 -1q98 0 166 -29t106 -86t54 -128t16 -167v-305q0 -6 0.5 -15.5t5.5 -34.5t14.5 -44t30 -34.5t48.5 -15.5zM475 1442l346 -334h-76l-499 262z
" />
    <glyph glyph-name="aacute" unicode="&#xe1;" horiz-adv-x="1077" 
d="M614 211v276q-268 -60 -268 -245q0 -6 1 -15t8 -32.5t19.5 -41.5t40 -32.5t64.5 -14.5q48 0 84 31.5t51 73.5zM971 106q5 0 12.5 1t22.5 9.5t20 24.5l35 -14q-13 -54 -81 -99.5t-159 -45.5q-7 0 -19.5 1t-45 9.5t-59 24t-51 50t-30.5 80.5q-24 -69 -107.5 -117
t-189.5 -48q-5 0 -13.5 0.5t-33 4.5t-46.5 11t-49 22.5t-46.5 36.5t-33 55.5t-13.5 77.5q0 34 6 62t15 51t28 42.5t36.5 34t50 29.5t58.5 25t72 23t80.5 21.5t94.5 23.5q58 14 89 22v127q0 159 -77 230.5t-183 15.5q-58 -29 -64 -58q-3 -11 5 -12q50 -6 76 -45
q27 -40 18 -86.5t-49 -74.5q-40 -27 -87 -18t-75 48q-18 29 -19.5 63t13.5 60q31 54 63 84q38 35 97 66q41 22 90.5 32t78.5 10l29 -1q98 0 166 -29t106 -86t54 -128t16 -167v-305q0 -6 0.5 -15.5t5.5 -34.5t14.5 -44t30 -34.5t48.5 -15.5zM289 1108l346 334l229 -72
l-499 -262h-76z" />
    <glyph glyph-name="acircumflex" unicode="&#xe2;" horiz-adv-x="1077" 
d="M614 211v276q-268 -60 -268 -245q0 -6 1 -15t8 -32.5t19.5 -41.5t40 -32.5t64.5 -14.5q48 0 84 31.5t51 73.5zM971 106q5 0 12.5 1t22.5 9.5t20 24.5l35 -14q-13 -54 -81 -99.5t-159 -45.5q-7 0 -19.5 1t-45 9.5t-59 24t-51 50t-30.5 80.5q-24 -69 -107.5 -117
t-189.5 -48q-5 0 -13.5 0.5t-33 4.5t-46.5 11t-49 22.5t-46.5 36.5t-33 55.5t-13.5 77.5q0 34 6 62t15 51t28 42.5t36.5 34t50 29.5t58.5 25t72 23t80.5 21.5t94.5 23.5q58 14 89 22v127q0 159 -77 230.5t-183 15.5q-58 -29 -64 -58q-3 -11 5 -12q50 -6 76 -45
q27 -40 18 -86.5t-49 -74.5q-40 -27 -87 -18t-75 48q-18 29 -19.5 63t13.5 60q31 54 63 84q38 35 97 66q41 22 90.5 32t78.5 10l29 -1q98 0 166 -29t106 -86t54 -128t16 -167v-305q0 -6 0.5 -15.5t5.5 -34.5t14.5 -44t30 -34.5t48.5 -15.5zM319 1059h-73l317 383l318 -383
h-76l-242 158z" />
    <glyph glyph-name="atilde" unicode="&#xe3;" horiz-adv-x="1077" 
d="M647 1120l-246 88q-28 10 -70.5 11t-89 -8t-87.5 -35t-60 -66l-31 12q30 73 67.5 127.5t74 83t74 47t69 22t56.5 3t39 -4.5l14 -3l243 -90q66 -23 170 3t140 101l30 -16q-30 -73 -68 -127.5t-74.5 -83t-74 -47t-68.5 -22t-55.5 -3t-38.5 3.5zM614 211v276
q-268 -60 -268 -245q0 -6 1 -15t8 -32.5t19.5 -41.5t40 -32.5t64.5 -14.5q48 0 84 31.5t51 73.5zM971 106q5 0 12.5 1t22.5 9.5t20 24.5l35 -14q-13 -54 -81 -99.5t-159 -45.5q-7 0 -19.5 1t-45 9.5t-59 24t-51 50t-30.5 80.5q-24 -69 -107.5 -117t-189.5 -48
q-5 0 -13.5 0.5t-33 4.5t-46.5 11t-49 22.5t-46.5 36.5t-33 55.5t-13.5 77.5q0 34 6 62t15 51t28 42.5t36.5 34t50 29.5t58.5 25t72 23t80.5 21.5t94.5 23.5q58 14 89 22v127q0 159 -77 230.5t-183 15.5q-58 -29 -64 -58q-3 -11 5 -12q50 -6 76 -45q27 -40 18 -86.5
t-49 -74.5q-40 -27 -87 -18t-75 48q-18 29 -19.5 63t13.5 60q31 54 63 84q38 35 97 66q41 22 90.5 32t78.5 10l29 -1q98 0 166 -29t106 -86t54 -128t16 -167v-305q0 -6 0.5 -15.5t5.5 -34.5t14.5 -44t30 -34.5t48.5 -15.5z" />
    <glyph glyph-name="adieresis" unicode="&#xe4;" horiz-adv-x="1077" 
d="M483 1262q0 -51 -35 -87t-86 -36t-85.5 36t-34.5 87q0 50 34.5 85t85.5 35t86 -35t35 -85zM868 1262q0 -51 -34.5 -87t-85.5 -36t-86 36t-35 87q0 50 35 85t86 35t85.5 -35t34.5 -85zM614 211v276q-268 -60 -268 -245q0 -6 1 -15t8 -32.5t19.5 -41.5t40 -32.5t64.5 -14.5
q48 0 84 31.5t51 73.5zM971 106q5 0 12.5 1t22.5 9.5t20 24.5l35 -14q-13 -54 -81 -99.5t-159 -45.5q-7 0 -19.5 1t-45 9.5t-59 24t-51 50t-30.5 80.5q-24 -69 -107.5 -117t-189.5 -48q-5 0 -13.5 0.5t-33 4.5t-46.5 11t-49 22.5t-46.5 36.5t-33 55.5t-13.5 77.5q0 34 6 62
t15 51t28 42.5t36.5 34t50 29.5t58.5 25t72 23t80.5 21.5t94.5 23.5q58 14 89 22v127q0 159 -77 230.5t-183 15.5q-58 -29 -64 -58q-3 -11 5 -12q50 -6 76 -45q27 -40 18 -86.5t-49 -74.5q-40 -27 -87 -18t-75 48q-18 29 -19.5 63t13.5 60q31 54 63 84q38 35 97 66
q41 22 90.5 32t78.5 10l29 -1q98 0 166 -29t106 -86t54 -128t16 -167v-305q0 -6 0.5 -15.5t5.5 -34.5t14.5 -44t30 -34.5t48.5 -15.5z" />
    <glyph glyph-name="aring" unicode="&#xe5;" horiz-adv-x="1077" 
d="M545 1092q-89 0 -152 63t-63 152t63 152t152 63t152 -63t63 -152t-63 -152t-152 -63zM545 1430q-51 0 -87 -36t-36 -87t36 -87t87 -36t87 36t36 87t-36 87t-87 36zM614 211v276q-268 -60 -268 -245q0 -6 1 -15t8 -32.5t19.5 -41.5t40 -32.5t64.5 -14.5q48 0 84 31.5
t51 73.5zM971 106q5 0 12.5 1t22.5 9.5t20 24.5l35 -14q-13 -54 -81 -99.5t-159 -45.5q-7 0 -19.5 1t-45 9.5t-59 24t-51 50t-30.5 80.5q-24 -69 -107.5 -117t-189.5 -48q-5 0 -13.5 0.5t-33 4.5t-46.5 11t-49 22.5t-46.5 36.5t-33 55.5t-13.5 77.5q0 34 6 62t15 51t28 42.5
t36.5 34t50 29.5t58.5 25t72 23t80.5 21.5t94.5 23.5q58 14 89 22v127q0 159 -77 230.5t-183 15.5q-58 -29 -64 -58q-3 -11 5 -12q50 -6 76 -45q27 -40 18 -86.5t-49 -74.5q-40 -27 -87 -18t-75 48q-18 29 -19.5 63t13.5 60q31 54 63 84q38 35 97 66q41 22 90.5 32t78.5 10
l29 -1q98 0 166 -29t106 -86t54 -128t16 -167v-305q0 -6 0.5 -15.5t5.5 -34.5t14.5 -44t30 -34.5t48.5 -15.5z" />
    <glyph glyph-name="ae" unicode="&#xe6;" horiz-adv-x="1513" 
d="M1036 930q-46 0 -82.5 -35t-58.5 -93.5t-33.5 -129t-11.5 -146.5h348q0 201 -38 302.5t-124 101.5zM471 106q64 0 108 41t62 84q-35 72 -43 172l-2 91q-23 -6 -46.5 -14.5t-63 -30t-68 -47.5t-50.5 -68.5t-22 -91.5v-15t6 -32.5t17.5 -41.5t38 -32.5t63.5 -14.5z
M1077 156q80 -18 162 17t121 95l37 -18q-12 -39 -25.5 -69.5t-43 -70t-67 -65.5t-100 -44.5t-139.5 -18.5q-118 0 -215 63.5t-141 147.5q-22 -85 -118 -148t-229 -63q-5 0 -13.5 0.5t-33 4.5t-46.5 11t-49 22.5t-46.5 36.5t-33 55.5t-13.5 77.5q0 61 21.5 105.5t47 73
t100 58t125 44t177.5 48.5q27 7 41 11v121q0 159 -73 229.5t-179 14.5q-57 -28 -59 -53q0 -10 8 -11q43 -6 72 -49q27 -40 18 -86.5t-49 -74.5q-40 -27 -87 -18t-75 48q-18 29 -19.5 63t13.5 60q30 52 57 79q39 36 101 69q41 22 87 32.5t71 10.5h26q165 0 244 -138
q70 68 136 103t148 35q111 0 186.5 -28.5t120.5 -89t64.5 -146.5t19.5 -209h-577q17 -289 227 -336z" />
    <glyph glyph-name="ccedilla" unicode="&#xe7;" horiz-adv-x="1021" 
d="M922 264l28 -18q-12 -43 -41 -86t-76.5 -84.5t-123 -67.5t-166.5 -26q-15 0 -31 2l-37 -113q70 15 120.5 5.5t82 -38t45 -66t8.5 -77.5q-6 -48 -31 -83.5t-58.5 -53t-65 -25.5t-60.5 -8q-50 0 -89 14t-56 29q-12 9 -19 27t-4 36q6 26 29 39.5t49 7.5t39.5 -26.5
t9.5 -48.5q-3 -19 -16 -29q-3 -3 -0.5 -6t17 -6.5t40.5 -3.5q49 0 76.5 31t25.5 79q0 17 -10 41.5t-31 52t-63 42.5t-96 6l61 178q-113 17 -203 92.5t-137 180.5t-47 216q0 90 34.5 176t99 156t168 113t229.5 43q165 0 268 -91q27 -24 39 -62.5t2 -74.5q-15 -55 -64 -84
t-104 -14q-55 13 -83 62.5t-13 103.5q11 55 63 82q13 6 -9 20q-36 23 -99 23q-18 0 -38.5 -4.5t-47.5 -17t-52.5 -31.5t-50.5 -52t-43 -74.5t-29.5 -102.5t-11.5 -134q0 -155 71.5 -239.5t188.5 -110.5q76 -17 176 15.5t136 84.5z" />
    <glyph glyph-name="egrave" unicode="&#xe8;" horiz-adv-x="1073" 
d="M338 526h401q0 189 -54.5 296.5t-141.5 107.5q-58 0 -106 -60t-73.5 -152.5t-25.5 -191.5zM553 965q222 0 329 -116.5t107 -356.5h-651q12 -145 80 -228t176 -108q88 -20 188.5 11.5t137.5 100.5l34 -18q-11 -35 -30.5 -69t-55.5 -71t-82 -64.5t-113.5 -45.5t-146.5 -18
q-129 0 -234.5 72t-161.5 183t-56 232q0 217 133.5 356.5t345.5 139.5zM467 1442l346 -334h-76l-499 262z" />
    <glyph glyph-name="eacute" unicode="&#xe9;" horiz-adv-x="1073" 
d="M338 526h401q0 189 -54.5 296.5t-141.5 107.5q-58 0 -106 -60t-73.5 -152.5t-25.5 -191.5zM553 965q222 0 329 -116.5t107 -356.5h-651q12 -145 80 -228t176 -108q88 -20 188.5 11.5t137.5 100.5l34 -18q-11 -35 -30.5 -69t-55.5 -71t-82 -64.5t-113.5 -45.5t-146.5 -18
q-129 0 -234.5 72t-161.5 183t-56 232q0 217 133.5 356.5t345.5 139.5zM260 1108l346 334l230 -72l-500 -262h-76z" />
    <glyph glyph-name="ecircumflex" unicode="&#xea;" horiz-adv-x="1073" 
d="M338 526h401q0 189 -54.5 296.5t-141.5 107.5q-58 0 -106 -60t-73.5 -152.5t-25.5 -191.5zM553 965q222 0 329 -116.5t107 -356.5h-651q12 -145 80 -228t176 -108q88 -20 188.5 11.5t137.5 100.5l34 -18q-11 -35 -30.5 -69t-55.5 -71t-82 -64.5t-113.5 -45.5t-146.5 -18
q-129 0 -234.5 72t-161.5 183t-56 232q0 217 133.5 356.5t345.5 139.5zM283 1059h-74l317 383l318 -383h-76l-242 158z" />
    <glyph glyph-name="edieresis" unicode="&#xeb;" horiz-adv-x="1073" 
d="M463 1262q0 -51 -35 -87t-86 -36t-86 36t-35 87q0 50 35 85t86 35t86 -35t35 -85zM848 1262q0 -51 -35 -87t-86 -36t-86 36t-35 87q0 50 35 85t86 35t86 -35t35 -85zM338 526h401q0 189 -54.5 296.5t-141.5 107.5q-58 0 -106 -60t-73.5 -152.5t-25.5 -191.5zM553 965
q222 0 329 -116.5t107 -356.5h-651q12 -145 80 -228t176 -108q88 -20 188.5 11.5t137.5 100.5l34 -18q-11 -35 -30.5 -69t-55.5 -71t-82 -64.5t-113.5 -45.5t-146.5 -18q-129 0 -234.5 72t-161.5 183t-56 232q0 217 133.5 356.5t345.5 139.5z" />
    <glyph glyph-name="igrave" unicode="&#xec;" horiz-adv-x="577" 
d="M416 250q0 -98 16.5 -149.5t67.5 -65.5v-35h-420v35q53 17 67.5 68t14.5 147v455q0 52 -21 80.5t-84 62.5v35l359 82v-715zM221 1442l346 -334h-75l-500 262z" />
    <glyph glyph-name="iacute" unicode="&#xed;" horiz-adv-x="577" 
d="M416 250q0 -98 16.5 -149.5t67.5 -65.5v-35h-420v35q53 17 67.5 68t14.5 147v455q0 52 -21 80.5t-84 62.5v35l359 82v-715zM18 1108l347 334l229 -72l-500 -262h-76z" />
    <glyph glyph-name="icircumflex" unicode="&#xee;" horiz-adv-x="577" 
d="M416 250q0 -98 16.5 -149.5t67.5 -65.5v-35h-420v35q53 17 67.5 68t14.5 147v455q0 52 -21 80.5t-84 62.5v35l359 82v-715zM70 1059h-74l317 383l318 -383h-76l-242 158z" />
    <glyph glyph-name="idieresis" unicode="&#xef;" horiz-adv-x="577" 
d="M209 1262q0 -51 -35 -87t-86 -36t-86 36t-35 87q0 50 35 85t86 35t86 -35t35 -85zM594 1262q0 -51 -35 -87t-86 -36t-86 36t-35 87q0 50 35 85t86 35t86 -35t35 -85zM416 250q0 -98 16.5 -149.5t67.5 -65.5v-35h-420v35q53 17 67.5 68t14.5 147v455q0 52 -21 80.5
t-84 62.5v35l359 82v-715z" />
    <glyph glyph-name="eth" unicode="&#xf0;" horiz-adv-x="1185" 
d="M784 680v4q-45 80 -102.5 115t-110.5 35q-87 0 -139.5 -115t-52.5 -313q0 -156 24 -242t67 -117t118 -31q112 0 154 149.5t42 514.5zM1108 651q0 -312 -133.5 -490.5t-386.5 -178.5q-106 0 -196.5 28.5t-161.5 84t-111.5 146t-40.5 205.5q0 89 21 166t65.5 142t123 103
t183.5 38q228 0 313 -141q-6 314 -84 481l-348 -176l-26 28l356 185q-98 153 -307 153v35q124 0 240.5 -31.5t203.5 -87.5l211 109l31 -29l-207 -106q119 -101 186.5 -269.5t67.5 -394.5z" />
    <glyph glyph-name="ntilde" unicode="&#xf1;" horiz-adv-x="1103" 
d="M639 1120l-246 88q-28 10 -70.5 11t-89 -8t-87.5 -35t-60 -66l-31 12q30 73 67.5 127.5t74 83t74 47t69 22t56.5 3t39 -4.5l14 -3l243 -90q66 -23 169.5 3t139.5 101l31 -16q-30 -73 -68 -127.5t-74.5 -83t-74 -47t-68.5 -22t-55.5 -3t-38.5 3.5zM975 250
q0 -98 16.5 -150.5t67.5 -64.5v-35h-422v35q53 16 67.5 67.5t14.5 147.5v397q0 75 -45.5 122.5t-120.5 47.5q-61 0 -117.5 -53.5t-56.5 -114.5v-403q0 -95 17 -146t67 -65v-35h-420v35q53 16 66.5 65t13.5 146v463q0 53 -19.5 79t-83.5 60v35l359 82v-220q34 91 136 155.5
t202 64.5q63 0 108 -14t80 -48.5t52.5 -96.5t17.5 -153v-403z" />
    <glyph glyph-name="ograve" unicode="&#xf2;" horiz-adv-x="1136" 
d="M571 965q114 0 207.5 -39t154.5 -106t93.5 -156t32.5 -191q0 -136 -55.5 -246t-168 -177.5t-264.5 -67.5q-225 0 -356 141t-131 350q0 137 56 247.5t168 177.5t263 67zM571 16q76 0 114.5 38t54.5 133.5t16 285.5t-16 285.5t-54.5 133.5t-114.5 38t-114.5 -38t-55 -133.5
t-16.5 -285.5t16.5 -285.5t55 -133.5t114.5 -38zM496 1442l346 -334h-76l-500 262z" />
    <glyph glyph-name="oacute" unicode="&#xf3;" horiz-adv-x="1136" 
d="M571 965q114 0 207.5 -39t154.5 -106t93.5 -156t32.5 -191q0 -136 -55.5 -246t-168 -177.5t-264.5 -67.5q-225 0 -356 141t-131 350q0 137 56 247.5t168 177.5t263 67zM571 16q76 0 114.5 38t54.5 133.5t16 285.5t-16 285.5t-54.5 133.5t-114.5 38t-114.5 -38t-55 -133.5
t-16.5 -285.5t16.5 -285.5t55 -133.5t114.5 -38zM305 1108l346 334l230 -72l-500 -262h-76z" />
    <glyph glyph-name="ocircumflex" unicode="&#xf4;" horiz-adv-x="1136" 
d="M571 965q114 0 207.5 -39t154.5 -106t93.5 -156t32.5 -191q0 -136 -55.5 -246t-168 -177.5t-264.5 -67.5q-225 0 -356 141t-131 350q0 137 56 247.5t168 177.5t263 67zM571 16q76 0 114.5 38t54.5 133.5t16 285.5t-16 285.5t-54.5 133.5t-114.5 38t-114.5 -38t-55 -133.5
t-16.5 -285.5t16.5 -285.5t55 -133.5t114.5 -38zM338 1059h-74l318 383l317 -383h-76l-241 158z" />
    <glyph glyph-name="otilde" unicode="&#xf5;" horiz-adv-x="1136" 
d="M657 1120l-245 88q-28 10 -71 11t-89 -8t-87.5 -35t-60.5 -66l-30 12q30 73 67.5 127.5t74 83t74 47t69 22t56 3t38.5 -4.5l14 -3l244 -90q66 -23 169.5 3t139.5 101l31 -16q-30 -73 -68 -127.5t-74.5 -83t-74 -47t-69 -22t-56 -3t-38.5 3.5zM571 965q114 0 207.5 -39
t154.5 -106t93.5 -156t32.5 -191q0 -136 -55.5 -246t-168 -177.5t-264.5 -67.5q-225 0 -356 141t-131 350q0 137 56 247.5t168 177.5t263 67zM571 16q76 0 114.5 38t54.5 133.5t16 285.5t-16 285.5t-54.5 133.5t-114.5 38t-114.5 -38t-55 -133.5t-16.5 -285.5t16.5 -285.5
t55 -133.5t114.5 -38z" />
    <glyph glyph-name="odieresis" unicode="&#xf6;" horiz-adv-x="1136" 
d="M500 1262q0 -51 -35 -87t-86 -36t-86 36t-35 87q0 50 35 85t86 35t86 -35t35 -85zM885 1262q0 -51 -35 -87t-86 -36t-86 36t-35 87q0 50 35 85t86 35t86 -35t35 -85zM571 965q114 0 207.5 -39t154.5 -106t93.5 -156t32.5 -191q0 -136 -55.5 -246t-168 -177.5
t-264.5 -67.5q-225 0 -356 141t-131 350q0 137 56 247.5t168 177.5t263 67zM571 16q76 0 114.5 38t54.5 133.5t16 285.5t-16 285.5t-54.5 133.5t-114.5 38t-114.5 -38t-55 -133.5t-16.5 -285.5t16.5 -285.5t55 -133.5t114.5 -38z" />
    <glyph glyph-name="divide" unicode="&#xf7;" horiz-adv-x="1280" 
d="M1190 471h-1098v191h1098v-191zM778 1010q0 -57 -40.5 -98.5t-98.5 -41.5q-57 0 -97 41.5t-40 98.5t40 98t97 41q58 0 98.5 -41t40.5 -98zM778 123q0 -59 -40 -99t-99 -40q-57 0 -97 40.5t-40 98.5q0 57 40 97t97 40q58 0 98.5 -40t40.5 -97z" />
    <glyph glyph-name="oslash" unicode="&#xf8;" horiz-adv-x="1140" 
d="M178 -137l119 192q-103 64 -158 174t-55 244q0 137 56 247.5t168 177.5t263 67q136 0 250 -60l105 170h35l-115 -184q103 -65 158 -174.5t55 -243.5q0 -136 -55.5 -246t-168 -177.5t-264.5 -67.5q-141 0 -249 57l-109 -176h-35zM385 473q0 -177 10 -256l342 553
q-17 90 -55 125t-111 35q-76 0 -114.5 -38t-55 -133.5t-16.5 -285.5zM571 16q76 0 114.5 38t54.5 133.5t16 285.5q0 150 -13 252l-340 -553q18 -88 56.5 -122t111.5 -34z" />
    <glyph glyph-name="ugrave" unicode="&#xf9;" horiz-adv-x="1144" 
d="M1010 188q0 -50 9 -72.5t28 -30t67 -13.5v-35l-303 -53q-24 -4 -38.5 6t-16.5 22l-2 11v180q-36 -87 -143 -154t-203 -67q-64 0 -109.5 14.5t-80 49.5t-51.5 96.5t-17 152.5v438q0 89 -8 109q-11 30 -60 41q-18 4 -47 8v35l368 39v-664q0 -87 41.5 -128.5t130.5 -41.5
q45 0 96.5 37t82.5 96v463v22v41.5t-1.5 31t-5.5 25t-10.5 16.5t-17.5 14t-26 8t-36 6v35l353 39v-777zM496 1442l346 -334h-76l-500 262z" />
    <glyph glyph-name="uacute" unicode="&#xfa;" horiz-adv-x="1144" 
d="M1010 188q0 -50 9 -72.5t28 -30t67 -13.5v-35l-303 -53q-24 -4 -38.5 6t-16.5 22l-2 11v180q-36 -87 -143 -154t-203 -67q-64 0 -109.5 14.5t-80 49.5t-51.5 96.5t-17 152.5v438q0 89 -8 109q-11 30 -60 41q-18 4 -47 8v35l368 39v-664q0 -87 41.5 -128.5t130.5 -41.5
q45 0 96.5 37t82.5 96v463v22v41.5t-1.5 31t-5.5 25t-10.5 16.5t-17.5 14t-26 8t-36 6v35l353 39v-777zM305 1108l346 334l230 -72l-500 -262h-76z" />
    <glyph glyph-name="ucircumflex" unicode="&#xfb;" horiz-adv-x="1144" 
d="M1010 188q0 -50 9 -72.5t28 -30t67 -13.5v-35l-303 -53q-24 -4 -38.5 6t-16.5 22l-2 11v180q-36 -87 -143 -154t-203 -67q-64 0 -109.5 14.5t-80 49.5t-51.5 96.5t-17 152.5v438q0 89 -8 109q-11 30 -60 41q-18 4 -47 8v35l368 39v-664q0 -87 41.5 -128.5t130.5 -41.5
q45 0 96.5 37t82.5 96v463v22v41.5t-1.5 31t-5.5 25t-10.5 16.5t-17.5 14t-26 8t-36 6v35l353 39v-777zM324 1059h-74l317 383l318 -383h-76l-242 158z" />
    <glyph glyph-name="udieresis" unicode="&#xfc;" horiz-adv-x="1144" 
d="M496 1262q0 -51 -35 -87t-86 -36t-86 36t-35 87q0 50 35 85t86 35t86 -35t35 -85zM881 1262q0 -51 -35 -87t-86 -36t-86 36t-35 87q0 50 35 85t86 35t86 -35t35 -85zM1010 188q0 -50 9 -72.5t28 -30t67 -13.5v-35l-303 -53q-24 -4 -38.5 6t-16.5 22l-2 11v180
q-36 -87 -143 -154t-203 -67q-64 0 -109.5 14.5t-80 49.5t-51.5 96.5t-17 152.5v438q0 89 -8 109q-11 30 -60 41q-18 4 -47 8v35l368 39v-664q0 -87 41.5 -128.5t130.5 -41.5q45 0 96.5 37t82.5 96v463v22v41.5t-1.5 31t-5.5 25t-10.5 16.5t-17.5 14t-26 8t-36 6v35l353 39
v-777z" />
    <glyph glyph-name="yacute" unicode="&#xfd;" horiz-adv-x="1107" 
d="M676 946h401v-35q-19 0 -32.5 -2.5t-42.5 -19.5t-55 -48t-63.5 -95t-74.5 -154l-313 -825q-58 -152 -154 -228q-28 -24 -74.5 -30.5t-83.5 10.5q-54 25 -74.5 79.5t3.5 108.5q25 54 79.5 75t108.5 -3q52 -23 70 -84q6 -20 31 -6q35 19 59 82l78 211q-56 130 -153 342.5
t-166 359.5l-68 147q-12 28 -29 46t-37.5 24.5t-32.5 8t-30 1.5v35h483v-35q-30 0 -46 -13t-18.5 -31.5t-0.5 -36.5t7 -31l5 -13l217 -462l108 276q2 4 4.5 11t9.5 28.5t12.5 42t9 48.5t3 52t-8.5 49t-23 42t-43 27.5t-66 10.5v35zM266 1108l346 334l230 -72l-500 -262h-76z
" />
    <glyph glyph-name="thorn" unicode="&#xfe;" horiz-adv-x="1228" 
d="M631 16q114 0 164.5 99.5t50.5 330.5q0 242 -58 342.5t-186 100.5q-89 0 -144.5 -62t-66.5 -159v-375q6 -75 30 -131t58.5 -86.5t72.5 -45t79 -14.5zM702 965q87 0 165.5 -33.5t139.5 -95t96.5 -158t35.5 -213.5q0 -121 -38 -214.5t-106.5 -151.5t-159.5 -87.5
t-200 -29.5q-147 0 -244 63v-354q0 -94 16.5 -140t67.5 -59v-35h-420v35q23 7 38.5 20.5t24 29t13 42t5.5 48.5t1 59v1575q0 51 -19 70.5t-83 43.5v35l356 82v-698q45 83 135.5 124.5t175.5 41.5z" />
    <glyph glyph-name="ydieresis" unicode="&#xff;" horiz-adv-x="1107" 
d="M481 1262q0 -51 -35 -87t-86 -36t-85.5 36t-34.5 87q0 50 34.5 85t85.5 35t86 -35t35 -85zM866 1262q0 -51 -35 -87t-86 -36t-85.5 36t-34.5 87q0 50 34.5 85t85.5 35t86 -35t35 -85zM676 946h401v-35q-19 0 -32.5 -2.5t-42.5 -19.5t-55 -48t-63.5 -95t-74.5 -154
l-313 -825q-58 -152 -154 -228q-28 -24 -74.5 -30.5t-83.5 10.5q-54 25 -74.5 79.5t3.5 108.5q25 54 79.5 75t108.5 -3q52 -23 70 -84q6 -20 31 -6q35 19 59 82l78 211q-56 130 -153 342.5t-166 359.5l-68 147q-12 28 -29 46t-37.5 24.5t-32.5 8t-30 1.5v35h483v-35
q-30 0 -46 -13t-18.5 -31.5t-0.5 -36.5t7 -31l5 -13l217 -462l108 276q2 4 4.5 11t9.5 28.5t12.5 42t9 48.5t3 52t-8.5 49t-23 42t-43 27.5t-66 10.5v35z" />
    <glyph glyph-name="Abreve" unicode="&#x102;" horiz-adv-x="1449" 
d="M1249 184q15 -34 28.5 -59.5t27.5 -41t23.5 -25.5t25 -14.5t22 -6t23.5 -2t22 -0.5v-35h-585v35q45 0 67 22.5t21 54.5t-8 64.5t-17 55.5l-10 22l-62 149h-485q-3 -8 -6.5 -22t-10.5 -53.5t-8 -75t9 -78.5t32 -73.5t68.5 -49.5t112.5 -16v-35h-504v35q36 3 54 14
q74 47 213 370q18 42 38 89l354 934h35zM348 438h467l-244 598zM714 1722q130 0 184 42t54 108h35q0 -61 -15.5 -113.5t-47.5 -96t-85.5 -68.5t-124.5 -25q-72 0 -127 25t-87 68.5t-48 96t-16 113.5h35q0 -150 243 -150z" />
    <glyph glyph-name="abreve" unicode="&#x103;" horiz-adv-x="1079" 
d="M614 211v276q-268 -60 -268 -245q0 -6 1 -15t8 -32.5t19.5 -41.5t40 -32.5t64.5 -14.5q48 0 84 31.5t51 73.5zM971 106q5 0 12.5 1t22.5 9.5t20 24.5l35 -14q-13 -54 -81 -99.5t-159 -45.5q-7 0 -19.5 1t-45 9.5t-59 24t-51 50t-30.5 80.5q-24 -69 -107.5 -117
t-189.5 -48q-5 0 -13.5 0.5t-33 4.5t-46.5 11t-49 22.5t-46.5 36.5t-33 55.5t-13.5 77.5q0 34 6 62t15 51t28 42.5t36.5 34t50 29.5t58.5 25t72 23t80.5 21.5t94.5 23.5q58 14 89 22v127q0 159 -77 230.5t-183 15.5q-58 -29 -64 -58q-3 -11 5 -12q50 -6 76 -45
q27 -40 18 -86.5t-49 -74.5q-40 -27 -87 -18t-75 48q-18 29 -19.5 63t13.5 60q31 54 63 84q38 35 97 66q41 22 90.5 32t78.5 10l29 -1q98 0 166 -29t106 -86t54 -128t16 -167v-305q0 -6 0.5 -15.5t5.5 -34.5t14.5 -44t30 -34.5t48.5 -15.5zM543 1292q237 0 237 150h35
q0 -61 -15.5 -113.5t-47 -96t-85 -68.5t-124.5 -25q-72 0 -127 25t-87.5 68.5t-48.5 96t-16 113.5h35q0 -150 244 -150z" />
    <glyph glyph-name="Aogonek" unicode="&#x104;" horiz-adv-x="1449" 
d="M1249 184q15 -34 28.5 -59.5t27.5 -41t23.5 -25.5t25 -14.5t22 -6t23.5 -2t22 -0.5v-35h-127q-83 -49 -119 -105.5t-22 -113.5q11 -39 43 -57t58 -16l26 1q28 5 44.5 24t16.5 48h35q0 -30 -3 -50t-14.5 -45t-38.5 -42t-69 -25q-57 -8 -97.5 -1t-65.5 23t-38.5 33
t-18.5 30l-5 13q-49 178 174 283h-364v35q45 0 67 22.5t21 54.5t-8 64.5t-17 55.5l-10 22l-62 149h-485q-3 -8 -6.5 -22t-10.5 -53.5t-8 -75t9 -78.5t32 -73.5t68.5 -49.5t112.5 -16v-35h-504v35q36 3 54 14q74 47 213 370q18 42 38 89l354 934h35zM348 438h467l-244 598z
" />
    <glyph glyph-name="aogonek" unicode="&#x105;" horiz-adv-x="1079" 
d="M971 106q5 0 12.5 1t22.5 9.5t20 24.5l35 -14q-11 -46 -63.5 -88t-125.5 -53q-68 -45 -97 -98t-17 -105q11 -39 43 -57t58 -16l26 1q28 5 44.5 24t16.5 48h35q0 -30 -3 -50t-14.5 -45t-38.5 -42t-69 -25q-57 -8 -97.5 -1t-65.5 23t-38.5 33t-18.5 30l-5 13
q-44 167 145 269q-144 26 -160 159q-24 -69 -107.5 -117t-189.5 -48q-5 0 -13.5 0.5t-33 4.5t-46.5 11t-49 22.5t-46.5 36.5t-33 55.5t-13.5 77.5q0 34 6 62t15 51t28 42.5t36.5 34t50 29.5t58.5 25t72 23t80.5 21.5t94.5 23.5q58 14 89 22v127q0 159 -77 230.5t-183 15.5
q-58 -29 -64 -58q-3 -11 5 -12q50 -6 76 -45q27 -40 18 -86.5t-49 -74.5q-40 -27 -87 -18t-75 48q-18 29 -19.5 63t13.5 60q31 54 63 84q38 35 97 66q41 22 90.5 32t78.5 10l29 -1q98 0 166 -29t106 -86t54 -128t16 -167v-305q0 -6 0.5 -15.5t5.5 -34.5t14.5 -44t30 -34.5
t48.5 -15.5zM614 211v276q-268 -60 -268 -245q0 -6 1 -15t8 -32.5t19.5 -41.5t40 -32.5t64.5 -14.5q48 0 84 31.5t51 73.5z" />
    <glyph glyph-name="Cacute" unicode="&#x106;" horiz-adv-x="1406" 
d="M1260 430h34l29 -321q-109 -72 -232.5 -99.5t-297.5 -27.5q-160 0 -295 58t-225.5 158.5t-140.5 235t-50 287.5t50 287.5t140.5 235t225.5 158.5t295 58q180 0 310.5 -26.5t219.5 -98.5l-29 -321h-34q-90 217 -194.5 314t-272.5 97q-89 0 -150 -31.5t-105.5 -109.5
t-65.5 -216.5t-21 -346.5t21.5 -347t67 -217t106 -109.5t147.5 -31.5q176 0 300.5 118.5t166.5 295.5zM457 1505l346 334l229 -72l-500 -262h-75z" />
    <glyph glyph-name="cacute" unicode="&#x107;" horiz-adv-x="1024" 
d="M922 264l28 -18q-12 -43 -41 -86t-76.5 -84.5t-123 -67.5t-166.5 -26q-97 0 -183 43.5t-143.5 114t-91 159t-33.5 178.5t34.5 176t99 156t168 113t229.5 43q165 0 268 -91q27 -24 39 -62.5t2 -74.5q-15 -55 -64 -84t-104 -14q-55 13 -83 62.5t-13 103.5q11 55 63 82
q13 6 -9 20q-36 23 -99 23q-18 0 -38.5 -4.5t-47.5 -17t-52.5 -31.5t-50.5 -52t-43 -74.5t-29.5 -102.5t-11.5 -134q0 -155 71.5 -239.5t188.5 -110.5q76 -17 176 15.5t136 84.5zM289 1108l346 334l229 -72l-499 -262h-76z" />
    <glyph glyph-name="Ccaron" unicode="&#x10c;" horiz-adv-x="1406" 
d="M1260 430h34l29 -321q-109 -72 -232.5 -99.5t-297.5 -27.5q-160 0 -295 58t-225.5 158.5t-140.5 235t-50 287.5t50 287.5t140.5 235t225.5 158.5t295 58q180 0 310.5 -26.5t219.5 -98.5l-29 -321h-34q-90 217 -194.5 314t-272.5 97q-89 0 -150 -31.5t-105.5 -109.5
t-65.5 -216.5t-21 -346.5t21.5 -347t67 -217t106 -109.5t147.5 -31.5q176 0 300.5 118.5t166.5 295.5zM463 1888h74l243 -157l242 157h76l-318 -383z" />
    <glyph glyph-name="ccaron" unicode="&#x10d;" horiz-adv-x="1024" 
d="M922 264l28 -18q-12 -43 -41 -86t-76.5 -84.5t-123 -67.5t-166.5 -26q-97 0 -183 43.5t-143.5 114t-91 159t-33.5 178.5t34.5 176t99 156t168 113t229.5 43q165 0 268 -91q27 -24 39 -62.5t2 -74.5q-15 -55 -64 -84t-104 -14q-55 13 -83 62.5t-13 103.5q11 55 63 82
q13 6 -9 20q-36 23 -99 23q-18 0 -38.5 -4.5t-47.5 -17t-52.5 -31.5t-50.5 -52t-43 -74.5t-29.5 -102.5t-11.5 -134q0 -155 71.5 -239.5t188.5 -110.5q76 -17 176 15.5t136 84.5zM262 1442h74l244 -158l241 158h76l-317 -383z" />
    <glyph glyph-name="Dcaron" unicode="&#x10e;" horiz-adv-x="1572" 
d="M616 1442q93 0 176.5 -8.5t172 -31t161.5 -57.5t139 -92t111.5 -131t72 -178t26.5 -229q0 -715 -859 -715h-540v35q66 0 109.5 70.5t43.5 175.5v878q0 99 -43.5 173.5t-109.5 74.5v35h540zM616 35q51 0 91.5 4t95 19.5t95.5 43t84 78.5t70.5 121t45.5 176t18 238
q0 133 -17.5 239.5t-45.5 177.5t-71 123.5t-84.5 81t-95 45t-95 21t-91.5 4.5h-90v-1372h90zM350 1889h74l243 -158l242 158h76l-318 -383z" />
    <glyph glyph-name="dcaron" unicode="&#x10f;" horiz-adv-x="1644" 
d="M1378 1442h199q0 -78 -28 -151t-67.5 -121t-79 -85t-67.5 -54l-28 -17l-27 30q4 3 10.5 10.5t23.5 38.5t30 71.5t23.5 114.5t10.5 163zM817 299v289q0 93 -21 162t-57.5 106.5t-77.5 55.5t-88 18q-114 0 -164.5 -97t-50.5 -327q0 -246 54.5 -349.5t179.5 -103.5
q103 0 164 68.5t61 177.5zM1071 199q0 -75 21 -101.5t84 -34.5v-34l-302 -45q-25 -4 -39.5 5t-16.5 20l-1 11v127q-31 -57 -89 -96t-114.5 -54t-109.5 -15q-87 0 -165.5 34t-139 96.5t-96 159.5t-35.5 215q0 121 38 213.5t106.5 149.5t158.5 86t200 29q141 0 246 -62v391
q0 53 -20 76t-84 47v35l358 76v-1329z" />
    <glyph glyph-name="Dcroat" unicode="&#x110;" horiz-adv-x="1572" 
d="M78 713v35h151v411q0 99 -43.5 173.5t-109.5 74.5v35h540q93 0 176.5 -8.5t172 -31t161.5 -57.5t139 -92t111.5 -131t72 -178t26.5 -229q0 -715 -859 -715h-540v35q66 0 109.5 70.5t43.5 175.5v432h-151zM616 35q51 0 91.5 4t95 19.5t95.5 43t84 78.5t70.5 121t45.5 176
t18 238q0 133 -17.5 239.5t-45.5 177.5t-71 123.5t-84.5 81t-95 45t-95 21t-91.5 4.5h-90v-659h299v-35h-299v-678h90z" />
    <glyph glyph-name="dcroat" unicode="&#x111;" horiz-adv-x="1251" 
d="M608 1163v35h209v96q0 53 -20 76t-84 47v35l358 76v-330h182v-35h-182v-964q0 -75 21 -101.5t84 -34.5v-34l-302 -45q-25 -4 -39.5 5t-16.5 20l-1 11v127q-31 -57 -89 -96t-114.5 -54t-109.5 -15q-87 0 -165.5 34t-139 96.5t-96 159.5t-35.5 215q0 121 38 213.5
t106.5 149.5t158.5 86t200 29q141 0 246 -62v260h-209zM817 299v289q0 93 -21 162t-57.5 106.5t-77.5 55.5t-88 18q-114 0 -164.5 -97t-50.5 -327q0 -246 54.5 -349.5t179.5 -103.5q103 0 164 68.5t61 177.5z" />
    <glyph glyph-name="Eogonek" unicode="&#x118;" horiz-adv-x="1337" 
d="M1174 446h34v-446h-80q-86 -49 -123.5 -107t-23.5 -116q11 -39 43 -57t58 -16l26 1q28 5 44.5 24t16.5 48h35q0 -30 -3 -50t-14.5 -45t-38.5 -42t-69 -25q-57 -8 -97.5 -1t-65.5 23t-38.5 33t-18.5 30l-5 13q-48 181 182 287h-981v35q61 0 90 67t29 179v878
q0 68 -10.5 121t-38 90t-70.5 37v35h1127v-389h-35q-10 72 -48 130.5t-92 94.5t-116.5 62.5t-123.5 39t-111 19t-80 7.5l-31 1h-74v-662h74q7 0 18 0.5t44 4.5t63 11.5t67.5 23.5t65.5 37.5t49 57t25 78.5h34v-460h-34q-4 43 -24.5 78.5t-50 57t-64.5 37.5t-69 23.5
t-61.5 11.5t-45.5 4l-17 1h-74v-676h74q11 0 31 1t78 9t112 22t123.5 44.5t123 72.5t98.5 110t63 152z" />
    <glyph glyph-name="eogonek" unicode="&#x119;" horiz-adv-x="1073" 
d="M553 965q222 0 329 -116.5t107 -356.5h-651q12 -145 80 -228t176 -108q88 -20 188.5 11.5t137.5 100.5l34 -18q-13 -41 -39 -80.5t-68 -80t-109.5 -68.5t-149.5 -35q-72 -47 -103.5 -101.5t-19.5 -107.5q11 -39 43 -57t58 -16l26 1q28 5 44.5 24t16.5 48h35q0 -30 -3 -50
t-14.5 -45t-38.5 -42t-69 -25q-57 -8 -97.5 -1t-65.5 23t-38.5 33t-18.5 30l-5 13q-45 173 149 273q-120 11 -216 83.5t-146.5 178.5t-50.5 221q0 217 133.5 356.5t345.5 139.5zM338 526h401q0 189 -54.5 296.5t-141.5 107.5q-58 0 -106 -60t-73.5 -152.5t-25.5 -191.5z" />
    <glyph glyph-name="Ecaron" unicode="&#x11a;" horiz-adv-x="1337" 
d="M1174 446h34v-446h-1153v35q61 0 90 67t29 179v878q0 68 -10.5 121t-38 90t-70.5 37v35h1127v-389h-35q-10 72 -48 130.5t-92 94.5t-116.5 62.5t-123.5 39t-111 19t-80 7.5l-31 1h-74v-662h74q7 0 18 0.5t44 4.5t63 11.5t67.5 23.5t65.5 37.5t49 57t25 78.5h34v-460h-34
q-4 43 -24.5 78.5t-50 57t-64.5 37.5t-69 23.5t-61.5 11.5t-45.5 4l-17 1h-74v-676h74q11 0 31 1t78 9t112 22t123.5 44.5t123 72.5t98.5 110t63 152zM350 1888h74l244 -157l241 157h76l-317 -383z" />
    <glyph glyph-name="ecaron" unicode="&#x11b;" horiz-adv-x="1073" 
d="M338 526h401q0 189 -54.5 296.5t-141.5 107.5q-58 0 -106 -60t-73.5 -152.5t-25.5 -191.5zM553 965q222 0 329 -116.5t107 -356.5h-651q12 -145 80 -228t176 -108q88 -20 188.5 11.5t137.5 100.5l34 -18q-11 -35 -30.5 -69t-55.5 -71t-82 -64.5t-113.5 -45.5t-146.5 -18
q-129 0 -234.5 72t-161.5 183t-56 232q0 217 133.5 356.5t345.5 139.5zM221 1442h74l244 -158l241 158h76l-317 -383z" />
    <glyph glyph-name="dotlessi" unicode="&#x131;" horiz-adv-x="577" 
d="M416 250q0 -98 16.5 -149.5t67.5 -65.5v-35h-420v35q53 17 67.5 68t14.5 147v455q0 52 -21 80.5t-84 62.5v35l359 82v-715z" />
    <glyph glyph-name="Lacute" unicode="&#x139;" horiz-adv-x="1366" 
d="M1204 444h35v-444h-1163v35q66 0 105.5 62.5t39.5 166.5v961q0 89 -46 135.5t-116 46.5v35h650v-35q-36 0 -67.5 -8t-60.5 -27t-46 -56.5t-17 -90.5v-1190h74q11 0 31 1t77.5 9t111 22t121.5 44.5t120 72t94.5 109t56.5 151.5zM332 1505l346 334l230 -72l-500 -262h-76z
" />
    <glyph glyph-name="lacute" unicode="&#x13a;" horiz-adv-x="542" 
d="M406 248q0 -98 15.5 -149.5t65.5 -63.5v-35h-419v35q53 16 67.5 66.5t14.5 146.5v1036q0 55 -21 82.5t-82 50.5v35l359 76v-1280zM-16 1565l346 333l229 -71l-500 -262h-75z" />
    <glyph glyph-name="Lcaron" unicode="&#x13d;" horiz-adv-x="1366" 
d="M1020 1442h199q0 -78 -28 -151t-67.5 -121t-79.5 -85t-68 -54l-28 -17l-26 30q4 3 10.5 10.5t23.5 38.5t30 71.5t23.5 114.5t10.5 163zM1204 444h35v-444h-1163v35q66 0 105.5 62.5t39.5 166.5v961q0 89 -46 135.5t-116 46.5v35h650v-35q-36 0 -67.5 -8t-60.5 -27
t-46 -56.5t-17 -90.5v-1190h74q11 0 31 1t77.5 9t111 22t121.5 44.5t120 72t94.5 109t56.5 151.5z" />
    <glyph glyph-name="lcaron" unicode="&#x13e;" horiz-adv-x="1050" 
d="M735 1442h199q0 -78 -28 -151t-67.5 -121t-79 -85t-67.5 -54l-28 -17l-27 30q4 3 10.5 10.5t23.5 38.5t30 71.5t23.5 114.5t10.5 163zM406 248q0 -98 15.5 -149.5t65.5 -63.5v-35h-419v35q53 16 67.5 66.5t14.5 146.5v1036q0 55 -21 82.5t-82 50.5v35l359 76v-1280z" />
    <glyph glyph-name="Lslash" unicode="&#x141;" horiz-adv-x="1384" 
d="M1257 446h35v-446h-1165v35q64 0 104.5 71t40.5 177v288l-245 -137v41l245 137v613q0 91 -45 136.5t-116 45.5v35h651v-35q-191 0 -191 -182v-445l398 226v-41l-398 -226v-704h74q90 0 168.5 14t135 38t104 54.5t78.5 64.5t55 68.5t37 65t21 54.5t10 38z" />
    <glyph glyph-name="lslash" unicode="&#x142;" horiz-adv-x="677" 
d="M23 553v41l184 119v571q0 55 -21 82.5t-82 50.5v35l359 76v-649l182 118v-41l-182 -118v-590q0 -97 16 -149t66 -64v-35h-420v35q53 16 67.5 66.5t14.5 146.5v424z" />
    <glyph glyph-name="Nacute" unicode="&#x143;" horiz-adv-x="1720" 
d="M1065 1442h621v-35q-63 0 -114 -26.5t-82 -69t-54 -94.5t-33 -103.5t-16 -94.5t-7 -70v-27v-922h-108l-895 1124v-602q0 -10 0.5 -27.5t5.5 -68t14.5 -96.5t30.5 -102.5t49.5 -97t75 -68t104.5 -27.5v-35h-622v35q63 0 114 27t82 70t54 94.5t33.5 103.5t16.5 95t7 70v27
v639l-80 101q-31 39 -60.5 67t-48.5 42.5t-43 23t-34 10t-31.5 2t-26.5 0.5v35h502l826 -1018v498q0 10 -0.5 27.5t-6 68t-15 96.5t-30.5 102t-49.5 96.5t-75 67.5t-104.5 27v35zM581 1505l346 334l230 -72l-500 -262h-76z" />
    <glyph glyph-name="nacute" unicode="&#x144;" horiz-adv-x="1103" 
d="M975 250q0 -98 16.5 -150.5t67.5 -64.5v-35h-422v35q53 16 67.5 67.5t14.5 147.5v397q0 75 -45.5 122.5t-120.5 47.5q-61 0 -117.5 -53.5t-56.5 -114.5v-403q0 -95 17 -146t67 -65v-35h-420v35q53 16 66.5 65t13.5 146v463q0 53 -19.5 79t-83.5 60v35l359 82v-220
q34 91 136 155.5t202 64.5q63 0 108 -14t80 -48.5t52.5 -96.5t17.5 -153v-403zM315 1108l347 334l229 -72l-500 -262h-76z" />
    <glyph glyph-name="Ncaron" unicode="&#x147;" horiz-adv-x="1720" 
d="M1065 1442h621v-35q-63 0 -114 -26.5t-82 -69t-54 -94.5t-33 -103.5t-16 -94.5t-7 -70v-27v-922h-108l-895 1124v-602q0 -10 0.5 -27.5t5.5 -68t14.5 -96.5t30.5 -102.5t49.5 -97t75 -68t104.5 -27.5v-35h-622v35q63 0 114 27t82 70t54 94.5t33.5 103.5t16.5 95t7 70v27
v639l-80 101q-31 39 -60.5 67t-48.5 42.5t-43 23t-34 10t-31.5 2t-26.5 0.5v35h502l826 -1018v498q0 10 -0.5 27.5t-6 68t-15 96.5t-30.5 102t-49.5 96.5t-75 67.5t-104.5 27v35zM549 1888h74l243 -157l242 157h76l-318 -383z" />
    <glyph glyph-name="ncaron" unicode="&#x148;" horiz-adv-x="1103" 
d="M975 250q0 -98 16.5 -150.5t67.5 -64.5v-35h-422v35q53 16 67.5 67.5t14.5 147.5v397q0 75 -45.5 122.5t-120.5 47.5q-61 0 -117.5 -53.5t-56.5 -114.5v-403q0 -95 17 -146t67 -65v-35h-420v35q53 16 66.5 65t13.5 146v463q0 53 -19.5 79t-83.5 60v35l359 82v-220
q34 91 136 155.5t202 64.5q63 0 108 -14t80 -48.5t52.5 -96.5t17.5 -153v-403zM270 1442h74l244 -158l241 158h76l-317 -383z" />
    <glyph glyph-name="Ohungarumlaut" unicode="&#x150;" horiz-adv-x="1587" 
d="M791 1460q165 0 300 -60t223 -162.5t135.5 -238t47.5 -288.5q0 -154 -47.5 -286.5t-135.5 -231t-223 -155t-300 -56.5t-300 56.5t-223.5 155t-136 231.5t-47.5 286t48 288.5t136 238t223 162.5t300 60zM791 16q76 0 130 18.5t98 64t70 124.5t40 199.5t14 288.5
q0 210 -20.5 348.5t-65.5 219t-108.5 113.5t-157.5 33q-76 0 -131 -20.5t-99.5 -69t-71.5 -130.5t-41 -204t-14 -290q0 -210 20.5 -346t67 -213t110 -106.5t159.5 -29.5zM481 1505l346 334l230 -72l-500 -262h-76zM850 1505l346 334l229 -72l-499 -262h-76z" />
    <glyph glyph-name="ohungarumlaut" unicode="&#x151;" horiz-adv-x="1138" 
d="M571 965q114 0 207.5 -39t154.5 -106t93.5 -156t32.5 -191q0 -136 -55.5 -246t-168 -177.5t-264.5 -67.5q-225 0 -356 141t-131 350q0 137 56 247.5t168 177.5t263 67zM571 16q76 0 114.5 38t54.5 133.5t16 285.5t-16 285.5t-54.5 133.5t-114.5 38t-114.5 -38t-55 -133.5
t-16.5 -285.5t16.5 -285.5t55 -133.5t114.5 -38zM229 1108l346 334l230 -72l-500 -262h-76zM598 1108l346 334l230 -72l-500 -262h-76z" />
    <glyph glyph-name="OE" unicode="&#x152;" horiz-adv-x="2056" 
d="M975 281v878q0 55 -7.5 98t-17.5 71t-30 47.5t-35 29t-42.5 14.5t-43 5.5t-45.5 0.5q-94 0 -152.5 -32t-96.5 -115.5t-52.5 -217.5t-14.5 -349q0 -173 10 -289.5t30.5 -198t59 -125.5t89.5 -63t127 -19q29 0 44.5 0.5t42.5 5.5t42.5 15t35.5 29t30.5 47t18 70.5t7.5 97.5
zM1346 35q10 0 27 0.5t67 8.5t97 21.5t107 44.5t106.5 72.5t86 110t55.5 153.5h35v-446h-1020q-99 -18 -153 -18q-165 0 -293.5 56t-209 156t-122 231t-41.5 286q0 123 25.5 233.5t79.5 205.5t131.5 163.5t187.5 107.5t242 39q68 0 147 -18h1000v-389h-35q-15 75 -51.5 135
t-83.5 96t-100 62t-103 37.5t-91 17.5t-66 6h-25h-74v-662h74h13t32.5 4t46.5 11t50 22.5t49 37.5t37.5 57.5t20.5 80.5h35v-460h-35q-6 61 -33.5 105.5t-63 64.5t-70.5 31t-58 11l-24 1h-74v-676h74z" />
    <glyph glyph-name="oe" unicode="&#x153;" horiz-adv-x="1601" 
d="M954 522h334q0 196 -40.5 302t-119.5 106q-46 0 -80.5 -35.5t-54.5 -95.5t-29.5 -129.5t-9.5 -147.5zM674 469q0 98 -2 163.5t-8 120.5t-15.5 86.5t-26.5 53t-38.5 29.5t-53.5 8q-34 0 -56.5 -7.5t-39 -30.5t-26 -52.5t-15 -87t-7 -120t-1.5 -163.5q0 -102 1.5 -163
t7 -118t14.5 -85.5t25.5 -50.5t39.5 -29t57 -7q33 0 55.5 7t39 29t26 51t15 84.5t7 118t1.5 163.5zM1454 268l39 -20q-12 -38 -25.5 -69t-42.5 -70t-65.5 -65t-96 -44t-133.5 -18q-156 0 -292 133q-61 -67 -134 -100t-174 -33q-113 0 -200 38t-140 105.5t-79.5 154
t-26.5 189.5q0 104 26.5 192t79.5 157t140 108t200 39q99 0 178.5 -38t131.5 -104q142 142 288 142q206 0 298 -117t92 -361h-564q6 -150 59 -228.5t158 -102.5q79 -18 160.5 18t122.5 94z" />
    <glyph glyph-name="Racute" unicode="&#x154;" horiz-adv-x="1490" 
d="M1237 236q14 -55 46 -96t70 -62t69 -31t55 -12v-35h-189h-105.5t-79 7t-61.5 8.5t-43 23.5t-35 33t-26 55t-27.5 70.5t-29.5 97.5q-29 94 -47 151q-19 59 -52.5 102.5t-67.5 63.5t-65 31t-51 13l-20 1h-97v-409q0 -101 42.5 -157t109.5 -56v-35h-596v35q67 0 107 55.5
t40 157.5v977q0 182 -147 182v35h508q95 0 167.5 -3.5t147.5 -14t130 -28.5t104 -47.5t79.5 -70.5t48 -98t17.5 -129q0 -178 -101.5 -263t-297.5 -108q42 4 83 -5t85.5 -39t84 -79.5t77.5 -131.5t67 -189zM545 692q55 0 84 1t73.5 8t68.5 20t54 39t44.5 64t25 95t10.5 132
t-10.5 132t-25 94.5t-45 63t-53.5 38.5t-69 19.5t-73.5 7.5t-83.5 1h-64v-715h64zM375 1505l346 334l230 -72l-500 -262h-76z" />
    <glyph glyph-name="racute" unicode="&#x155;" horiz-adv-x="870" 
d="M631 954q31 15 82.5 8t83.5 -34q47 -41 51 -105t-37 -110q-42 -48 -103.5 -53t-111.5 36q-47 44 -47 101q0 15 -29 5q-57 -20 -115 -102l-16 -24v-426q0 -98 16.5 -149.5t67.5 -65.5v-35h-424v35q23 7 39 22.5t24.5 32.5t12.5 46.5t5 51.5t1 62v455q0 54 -20 82.5
t-82 60.5v35l360 82v-232q38 60 74.5 102t71 66t51 32.5t45.5 20.5zM168 1108l346 334l229 -72l-499 -262h-76z" />
    <glyph glyph-name="Rcaron" unicode="&#x158;" horiz-adv-x="1490" 
d="M1237 236q14 -55 46 -96t70 -62t69 -31t55 -12v-35h-189h-105.5t-79 7t-61.5 8.5t-43 23.5t-35 33t-26 55t-27.5 70.5t-29.5 97.5q-29 94 -47 151q-19 59 -52.5 102.5t-67.5 63.5t-65 31t-51 13l-20 1h-97v-409q0 -101 42.5 -157t109.5 -56v-35h-596v35q67 0 107 55.5
t40 157.5v977q0 182 -147 182v35h508q95 0 167.5 -3.5t147.5 -14t130 -28.5t104 -47.5t79.5 -70.5t48 -98t17.5 -129q0 -178 -101.5 -263t-297.5 -108q42 4 83 -5t85.5 -39t84 -79.5t77.5 -131.5t67 -189zM545 692q55 0 84 1t73.5 8t68.5 20t54 39t44.5 64t25 95t10.5 132
t-10.5 132t-25 94.5t-45 63t-53.5 38.5t-69 19.5t-73.5 7.5t-83.5 1h-64v-715h64zM307 1889h74l243 -158l242 158h76l-318 -383z" />
    <glyph glyph-name="rcaron" unicode="&#x159;" horiz-adv-x="870" 
d="M631 954q31 15 82.5 8t83.5 -34q47 -41 51 -105t-37 -110q-42 -48 -103.5 -53t-111.5 36q-47 44 -47 101q0 15 -29 5q-57 -20 -115 -102l-16 -24v-426q0 -98 16.5 -149.5t67.5 -65.5v-35h-424v35q23 7 39 22.5t24.5 32.5t12.5 46.5t5 51.5t1 62v455q0 54 -20 82.5
t-82 60.5v35l360 82v-232q38 60 74.5 102t71 66t51 32.5t45.5 20.5zM92 1444h74l244 -158l241 158h76l-317 -383z" />
    <glyph glyph-name="Sacute" unicode="&#x15a;" horiz-adv-x="1261" 
d="M852 772q138 -91 213.5 -191t84.5 -210.5t-69 -220.5q-2 -4 -6 -10t-20.5 -23.5t-37 -33t-56.5 -35t-77.5 -33.5t-101.5 -23.5t-127 -9.5q-111 0 -210 13t-160 32t-106.5 37.5t-64.5 31.5l-20 13v393h35q52 -144 97 -221q156 -265 429 -265q64 0 112 32t67.5 85t15.5 115
t-45 129t-113 119l-315 198q-471 295 -230 611q4 6 12.5 16.5t43.5 37.5t78.5 47t121 37t168.5 17q98 0 188.5 -10t149.5 -24.5t103.5 -29t65.5 -24.5l20 -10v-344h-35q-11 30 -22.5 57.5t-35 70.5t-49.5 78.5t-66 74t-85 65t-105.5 44t-128.5 17.5q-54 0 -97.5 -21
t-69 -55.5t-32.5 -80.5t6 -94.5t54 -99.5t105 -93zM340 1505l346 334l230 -72l-500 -262h-76z" />
    <glyph glyph-name="sacute" unicode="&#x15b;" horiz-adv-x="909" 
d="M621 530q137 -85 177 -206t-36 -232q-3 -4 -9.5 -11.5t-31.5 -26.5t-55 -33.5t-81 -26.5t-110 -12q-69 0 -133 9.5t-105.5 23.5t-73 28t-45.5 23l-14 10v258h35q0 -1 13 -36t19 -48.5t24.5 -50t33.5 -55.5t42 -47.5t55 -43t67 -26t82 -11.5q53 0 85 31t36 74t-23.5 94
t-83.5 88l-206 125q-149 91 -187 207.5t47 226.5q3 4 9.5 11t31 25t54 31.5t80.5 24.5t108 11q105 0 189.5 -15.5t116.5 -31.5l32 -15v-229h-35q-9 25 -14 37.5t-20.5 44t-29.5 50.5t-39.5 45.5t-52.5 41.5t-65.5 26t-81.5 11q-49 0 -82.5 -27t-41 -66t20.5 -88.5t91 -89.5z
M203 1108l346 334l229 -72l-499 -262h-76z" />
    <glyph glyph-name="Scedilla" unicode="&#x15e;" horiz-adv-x="1261" 
d="M852 772q138 -91 213.5 -191t84.5 -210.5t-69 -220.5q-2 -4 -6 -10t-20.5 -23.5t-37 -33t-56.5 -35t-77.5 -33.5t-101.5 -23.5t-127 -9.5h-39l-36 -111q70 15 120.5 5.5t82 -38t45 -66t8.5 -77.5q-6 -48 -31 -83.5t-58.5 -53t-65 -25.5t-60.5 -8q-50 0 -89.5 14t-56.5 29
q-12 9 -18.5 27t-3.5 36q6 26 28.5 39.5t48.5 7.5t40 -26.5t10 -48.5q-3 -18 -17 -29q-3 -3 0 -6t17.5 -6.5t40.5 -3.5q49 0 76.5 31t25.5 79q0 17 -10 41.5t-31 52t-63.5 42.5t-96.5 6l60 174q-96 4 -182 18.5t-139.5 32t-93 34.5t-56.5 29l-17 11v393h35q52 -144 97 -221
q156 -265 429 -265q64 0 112 32t67.5 85t15.5 115t-45 129t-113 119l-315 198q-471 295 -230 611q4 6 12.5 16.5t43.5 37.5t78.5 47t121 37t168.5 17q98 0 188.5 -10t149.5 -24.5t103.5 -29t65.5 -24.5l20 -10v-344h-35q-11 30 -22.5 57.5t-35 70.5t-49.5 78.5t-66 74
t-85 65t-105.5 44t-128.5 17.5q-54 0 -97.5 -21t-69 -55.5t-32.5 -80.5t6 -94.5t54 -99.5t105 -93z" />
    <glyph glyph-name="scedilla" unicode="&#x15f;" horiz-adv-x="909" 
d="M621 530q137 -85 177 -206t-36 -232q-3 -4 -9.5 -11.5t-31.5 -26.5t-55 -33.5t-81 -26.5t-110 -12h-14l-37 -111q70 15 120.5 5.5t82 -38t45 -66t8.5 -77.5q-6 -48 -31 -83.5t-58.5 -53t-65 -25.5t-60.5 -8q-50 0 -89.5 14t-56.5 29q-12 9 -18.5 27t-3.5 36q6 26 29 39.5
t49 7.5t39.5 -26.5t9.5 -48.5q-3 -19 -16 -29q-3 -3 -0.5 -6t17 -6.5t40.5 -3.5q49 0 76.5 31t25.5 79q0 17 -10 41.5t-31 52t-63 42.5t-96 6l59 174q-60 3 -115.5 13.5t-91.5 23.5t-63 25.5t-40 21.5l-12 8v258h35q0 -1 13 -36t19 -48.5t24.5 -50t33.5 -55.5t42 -47.5
t55 -43t67 -26t82 -11.5q53 0 85 31t36 74t-23.5 94t-83.5 88l-206 125q-149 91 -187 207.5t47 226.5q3 4 9.5 11t31 25t54 31.5t80.5 24.5t108 11q105 0 189.5 -15.5t116.5 -31.5l32 -15v-229h-35q-9 25 -14 37.5t-20.5 44t-29.5 50.5t-39.5 45.5t-52.5 41.5t-65.5 26
t-81.5 11q-49 0 -82.5 -27t-41 -66t20.5 -88.5t91 -89.5z" />
    <glyph glyph-name="Scaron" unicode="&#x160;" horiz-adv-x="1261" 
d="M852 772q138 -91 213.5 -191t84.5 -210.5t-69 -220.5q-2 -4 -6 -10t-20.5 -23.5t-37 -33t-56.5 -35t-77.5 -33.5t-101.5 -23.5t-127 -9.5q-111 0 -210 13t-160 32t-106.5 37.5t-64.5 31.5l-20 13v393h35q52 -144 97 -221q156 -265 429 -265q64 0 112 32t67.5 85t15.5 115
t-45 129t-113 119l-315 198q-471 295 -230 611q4 6 12.5 16.5t43.5 37.5t78.5 47t121 37t168.5 17q98 0 188.5 -10t149.5 -24.5t103.5 -29t65.5 -24.5l20 -10v-344h-35q-11 30 -22.5 57.5t-35 70.5t-49.5 78.5t-66 74t-85 65t-105.5 44t-128.5 17.5q-54 0 -97.5 -21
t-69 -55.5t-32.5 -80.5t6 -94.5t54 -99.5t105 -93zM281 1889h74l243 -158l242 158h76l-318 -383z" />
    <glyph glyph-name="scaron" unicode="&#x161;" horiz-adv-x="909" 
d="M131 1397h74l244 -158l241 158h76l-317 -383zM621 530q137 -85 177 -206t-36 -232q-3 -4 -9.5 -11.5t-31.5 -26.5t-55 -33.5t-81 -26.5t-110 -12q-69 0 -133 9.5t-105.5 23.5t-73 28t-45.5 23l-14 10v258h35q0 -1 13 -36t19 -48.5t24.5 -50t33.5 -55.5t42 -47.5t55 -43
t67 -26t82 -11.5q53 0 85 31t36 74t-23.5 94t-83.5 88l-206 125q-149 91 -187 207.5t47 226.5q3 4 9.5 11t31 25t54 31.5t80.5 24.5t108 11q105 0 189.5 -15.5t116.5 -31.5l32 -15v-229h-35q-9 25 -14 37.5t-20.5 44t-29.5 50.5t-39.5 45.5t-52.5 41.5t-65.5 26t-81.5 11
q-49 0 -82.5 -27t-41 -66t20.5 -88.5t91 -89.5z" />
    <glyph glyph-name="uni0162" unicode="&#x162;" horiz-adv-x="1429" 
d="M39 1442h1347v-412h-34q-3 75 -30 136t-67 99.5t-88 67t-95 42t-86 21.5t-63 10l-24 1h-39v-1159q0 -99 52 -156t122 -57v-35h-334l-38 -119q70 15 120.5 5.5t82 -38t45 -66t8.5 -77.5q-6 -48 -31 -83.5t-59 -53t-65.5 -25.5t-60.5 -8q-50 0 -89 14t-56 29
q-12 9 -18.5 27t-3.5 37q6 26 28.5 39.5t48.5 7.5t40 -27t10 -49q-3 -18 -17 -29q-3 -3 -0.5 -6t17 -6.5t40.5 -3.5q49 0 77 31t26 79q0 17 -10 41.5t-31 52t-63.5 42.5t-96.5 6l62 180h-277v35q70 0 122 57t52 156v1159h-39q-9 0 -24.5 -1.5t-61 -9.5t-87 -21.5t-93 -42.5
t-89 -67t-65 -99t-30.5 -136h-35v412z" />
    <glyph glyph-name="uni0163" unicode="&#x163;" horiz-adv-x="724" 
d="M551 127q40 0 73.5 22.5t49.5 49.5l31 -19q-33 -77 -119.5 -137.5t-184.5 -60.5q-25 0 -65 4l-35 -105q70 15 120.5 5.5t82 -38t45 -66t8.5 -77.5q-6 -48 -31 -83.5t-58.5 -53t-65 -25.5t-60.5 -8q-50 0 -89 14t-56 29q-12 9 -19 27.5t-4 36.5q6 26 29 39.5t49 7.5
t39.5 -27t9.5 -49q-3 -19 -16 -29q-3 -3 -0.5 -6t17 -6.5t40.5 -3.5q49 0 76.5 31t25.5 79q0 17 -10 41.5t-31 52t-63 42.5t-96 6l59 174q-80 20 -120 90t-40 211v616h-102l-6 35h108v275l256 43v-318h244l-8 -35h-236v-610q0 -174 152 -174z" />
    <glyph glyph-name="Tcaron" unicode="&#x164;" horiz-adv-x="1429" 
d="M39 1442h1347v-412h-34q-3 75 -30 136t-67 99.5t-88 67t-95 42t-86 21.5t-63 10l-24 1h-39v-1159q0 -99 52 -156t122 -57v-35h-645v35q70 0 122 57t52 156v1159h-39q-9 0 -24.5 -1.5t-61 -9.5t-87 -21.5t-93 -42.5t-89 -67t-65 -99t-30.5 -136h-35v412zM397 1888h74
l244 -157l241 157h76l-317 -383z" />
    <glyph glyph-name="tcaron" unicode="&#x165;" horiz-adv-x="1167" 
d="M926 1442h198q0 -78 -28 -151t-67.5 -121t-79 -85t-67.5 -54l-28 -17l-27 30q4 3 10.5 10.5t24 38.5t30.5 71.5t23.5 114.5t10.5 163zM551 127q40 0 73.5 22.5t49.5 49.5l31 -19q-33 -77 -119.5 -137.5t-184.5 -60.5q-64 0 -109 14.5t-80 49t-52 96.5t-17 153v616h-102
l-6 35h108v275l256 43v-318h244l-8 -35h-236v-610q0 -174 152 -174z" />
    <glyph glyph-name="Uring" unicode="&#x16e;" horiz-adv-x="1540" 
d="M1507 1442v-35q-63 0 -114 -16.5t-82 -43.5t-53.5 -60t-33 -66t-16 -60t-6.5 -44v-17v-608q0 -91 -19 -166t-49.5 -127t-74 -91.5t-88.5 -63t-96.5 -38t-93.5 -19.5t-85 -5q-141 0 -255 59.5t-183.5 180t-69.5 282.5v723q0 89 -45.5 134.5t-117.5 45.5v35h651v-35
q-37 0 -68 -8t-60 -26.5t-46 -55.5t-17 -90v-738q0 -177 97 -281t247 -104q60 0 119 25t108.5 71.5t80 122.5t30.5 169v608q0 6 -0.5 17.5t-5.5 43.5t-14 61t-30 64.5t-49 61t-74.5 42.5t-104.5 17v35h618zM748 1915q-46 0 -78.5 -32.5t-32.5 -79.5q0 -46 32.5 -79.5
t78.5 -33.5q47 0 79.5 33.5t32.5 79.5q0 47 -32.5 79.5t-79.5 32.5zM748 1997q82 0 139 -56t57 -138q0 -80 -57.5 -137.5t-138.5 -57.5q-80 0 -138.5 58t-58.5 137q0 81 58.5 137.5t138.5 56.5z" />
    <glyph glyph-name="uring" unicode="&#x16f;" horiz-adv-x="1148" 
d="M1010 188q0 -50 9 -72.5t28 -30t67 -13.5v-35l-303 -53q-24 -4 -38.5 6t-16.5 22l-2 11v180q-36 -87 -143 -154t-203 -67q-64 0 -109.5 14.5t-80 49.5t-51.5 96.5t-17 152.5v438q0 89 -8 109q-11 30 -60 41q-18 4 -47 8v35l368 39v-664q0 -87 41.5 -128.5t130.5 -41.5
q45 0 96.5 37t82.5 96v463v22v41.5t-1.5 31t-5.5 25t-10.5 16.5t-17.5 14t-26 8t-36 6v35l353 39v-777zM602 1372q-46 0 -78 -32.5t-32 -79.5q0 -46 32.5 -79.5t77.5 -33.5q47 0 80 33.5t33 79.5q0 47 -33 79.5t-80 32.5zM602 1454q82 0 139.5 -56.5t57.5 -137.5
q0 -80 -58 -137.5t-139 -57.5q-80 0 -138 58t-58 137q0 81 58 137.5t138 56.5z" />
    <glyph glyph-name="Uhungarumlaut" unicode="&#x170;" horiz-adv-x="1540" 
d="M1507 1442v-35q-63 0 -114 -16.5t-82 -43.5t-53.5 -60t-33 -66t-16 -60t-6.5 -44v-17v-608q0 -91 -19 -166t-49.5 -127t-74 -91.5t-88.5 -63t-96.5 -38t-93.5 -19.5t-85 -5q-141 0 -255 59.5t-183.5 180t-69.5 282.5v723q0 89 -45.5 134.5t-117.5 45.5v35h651v-35
q-37 0 -68 -8t-60 -26.5t-46 -55.5t-17 -90v-738q0 -177 97 -281t247 -104q60 0 119 25t108.5 71.5t80 122.5t30.5 169v608q0 6 -0.5 17.5t-5.5 43.5t-14 61t-30 64.5t-49 61t-74.5 42.5t-104.5 17v35h618zM477 1506l346 334l230 -72l-500 -262h-76zM846 1506l346 334
l229 -72l-499 -262h-76z" />
    <glyph glyph-name="uhungarumlaut" unicode="&#x171;" horiz-adv-x="1148" 
d="M1010 188q0 -50 9 -72.5t28 -30t67 -13.5v-35l-303 -53q-24 -4 -38.5 6t-16.5 22l-2 11v180q-36 -87 -143 -154t-203 -67q-64 0 -109.5 14.5t-80 49.5t-51.5 96.5t-17 152.5v438q0 89 -8 109q-11 30 -60 41q-18 4 -47 8v35l368 39v-664q0 -87 41.5 -128.5t130.5 -41.5
q45 0 96.5 37t82.5 96v463v22v41.5t-1.5 31t-5.5 25t-10.5 16.5t-17.5 14t-26 8t-36 6v35l353 39v-777zM252 1108l346 334l229 -72l-499 -262h-76zM621 1108l346 334l229 -72l-500 -262h-75z" />
    <glyph glyph-name="Ydieresis" unicode="&#x178;" horiz-adv-x="1579" 
d="M594 1585q-50 0 -85.5 35t-35.5 86q0 50 35.5 85.5t85.5 35.5q51 0 86 -35.5t35 -85.5q0 -51 -35 -86t-86 -35zM979 1585q-50 0 -85.5 35t-35.5 86q0 50 36 85.5t85 35.5q51 0 87 -35.5t36 -85.5q0 -51 -36 -86t-87 -35zM938 1442h614v-35q-17 0 -31.5 -1.5t-47 -10.5
t-62 -25t-72.5 -49.5t-83.5 -80t-90 -120.5t-96.5 -166l-135 -284v-422q0 -99 52 -156t122 -57v-35h-645v35q70 0 122 57t52 156v317q-134 236 -233.5 406.5t-132.5 222.5l-33 53q-32 55 -64 90.5t-62 49.5t-49.5 18t-44.5 4v33h654v-33q-15 0 -24 -0.5t-28 -4.5t-29 -12
t-19 -25.5t-6.5 -41t16.5 -62t43 -87.5l288 -471l138 284q2 5 6 14.5t13.5 38t17 56t13.5 65.5t6 70t-8.5 65t-27 56.5t-52.5 38t-81 14.5v35z" />
    <glyph glyph-name="Zacute" unicode="&#x179;" horiz-adv-x="1263" 
d="M1217 1442l-758 -1407h96q89 0 176.5 34t154 85.5t122 113t89 115t48.5 94.5h37l-52 -477h-1081l813 1407h-96q-202 0 -378.5 -111t-231.5 -268h-41l39 414h1063zM383 1505l346 334l230 -72l-500 -262h-76z" />
    <glyph glyph-name="zacute" unicode="&#x17a;" horiz-adv-x="948" 
d="M881 946l-500 -911q322 0 420 276h35l-19 -311h-758l533 911q-132 0 -223.5 -32t-138.5 -81.5t-72 -121.5h-35l10 270h748zM297 1108l346 334l229 -72l-499 -262h-76z" />
    <glyph glyph-name="Zdotaccent" unicode="&#x17b;" horiz-adv-x="1263" 
d="M1217 1442l-758 -1407h96q89 0 176.5 34t154 85.5t122 113t89 115t48.5 94.5h37l-52 -477h-1081l813 1407h-96q-202 0 -378.5 -111t-231.5 -268h-41l39 414h1063zM803 1735q0 -51 -35.5 -87t-85.5 -36q-51 0 -87 36t-36 87q0 49 36 84t87 35q50 0 85.5 -35t35.5 -84z" />
    <glyph glyph-name="zdotaccent" unicode="&#x17c;" horiz-adv-x="948" 
d="M881 946l-500 -911q322 0 420 276h35l-19 -311h-758l533 911q-132 0 -223.5 -32t-138.5 -81.5t-72 -121.5h-35l10 270h748zM616 1284q0 -51 -35 -87t-85 -36q-51 0 -87 36t-36 87q0 49 36 84t87 35q50 0 85 -35t35 -84z" />
    <glyph glyph-name="Zcaron" unicode="&#x17d;" horiz-adv-x="1263" 
d="M1217 1442l-758 -1407h96q89 0 176.5 34t154 85.5t122 113t89 115t48.5 94.5h37l-52 -477h-1081l813 1407h-96q-202 0 -378.5 -111t-231.5 -268h-41l39 414h1063zM383 1889h74l243 -158l242 158h76l-318 -383z" />
    <glyph glyph-name="zcaron" unicode="&#x17e;" horiz-adv-x="954" 
d="M172 1397h74l243 -158l242 158h76l-318 -383zM881 946l-500 -911q322 0 420 276h35l-19 -311h-758l533 911q-132 0 -223.5 -32t-138.5 -81.5t-72 -121.5h-35l10 270h748z" />
    <glyph glyph-name="florin" unicode="&#x192;" horiz-adv-x="1423" 
d="M1333 1401q18 -28 20.5 -67t-12.5 -72q-23 -46 -71 -63t-92 5q-46 23 -63.5 71.5t5.5 94.5q21 47 70 60q11 3 6 15q-9 25 -78 25q-38 0 -74.5 -46.5t-61.5 -112.5t-44 -132t-28 -113l-9 -46l-31 -232h250l-12 -34h-242l-75 -553q-49 -369 -167 -530.5t-329 -159.5
q-84 0 -143 33t-82 69q-18 28 -21 67t12 72q23 46 71.5 63t94.5 -5q45 -24 62 -72t-6 -94q-21 -46 -72 -60q-12 -3 -7 -15q10 -24 87 -24q37 0 72.5 46t59.5 112.5t43.5 132.5t28.5 112l9 46l96 760h-156l5 34h153q25 200 93 361t177.5 258.5t241.5 97.5q74 0 135.5 -34.5
t83.5 -69.5z" />
    <glyph glyph-name="circumflex" unicode="&#x2c6;" horiz-adv-x="634" 
d="M635 1087h-74l-244 158l-243 -158h-74l317 386z" />
    <glyph glyph-name="caron" unicode="&#x2c7;" horiz-adv-x="638" 
d="M0 1475h74l243 -158l242 158h76l-318 -383z" />
    <glyph glyph-name="uni02C9" unicode="&#x2c9;" horiz-adv-x="624" 
d="M676 1194h-727v156h727v-156z" />
    <glyph glyph-name="breve" unicode="&#x2d8;" horiz-adv-x="546" 
d="M276 1292q130 0 184 42t54 108h35q0 -61 -15.5 -113.5t-47.5 -96t-85.5 -68.5t-124.5 -25q-72 0 -127 25t-87 68.5t-48 96t-16 113.5h35q0 -150 243 -150z" />
    <glyph glyph-name="dotaccent" unicode="&#x2d9;" 
d="M408 1323q0 -51 -35.5 -87t-85.5 -36q-51 0 -87 36t-36 87q0 49 36 84t87 35q50 0 85.5 -35t35.5 -84z" />
    <glyph glyph-name="ring" unicode="&#x2da;" 
d="M289 1417q-46 0 -78.5 -32.5t-32.5 -79.5q0 -46 32.5 -79.5t78.5 -33.5q47 0 79.5 33.5t32.5 79.5q0 47 -32.5 79.5t-79.5 32.5zM289 1499q82 0 139 -56t57 -138q0 -80 -57.5 -137.5t-138.5 -57.5q-80 0 -138.5 58t-58.5 137q0 81 58.5 137.5t138.5 56.5z" />
    <glyph glyph-name="ogonek" unicode="&#x2db;" 
d="M506 -25q-92 -50 -133 -109.5t-27 -119.5q11 -39 43 -57t58 -17l26 2q28 5 45 24t17 48h34q0 -30 -3 -50t-14.5 -45t-38.5 -42t-69 -25q-57 -8 -97.5 -1t-65.5 23.5t-38.5 33.5t-18.5 30l-5 13q-9 44 -7.5 79.5t20 67.5t43.5 57.5t63 48t78 40t90 34.5v-35z" />
    <glyph glyph-name="tilde" unicode="&#x2dc;" horiz-adv-x="911" 
d="M545 1126l-246 88q-28 10 -70.5 11t-89 -8t-87.5 -35t-60 -66l-31 12q30 73 67.5 127.5t74 83t74 47t69 22t56 3t38.5 -4.5l14 -3l244 -90q66 -23 169.5 3t139.5 101l31 -16q-30 -73 -68 -127.5t-74.5 -83t-74 -47t-68.5 -22t-55.5 -3t-38.5 3.5z" />
    <glyph glyph-name="hungarumlaut" unicode="&#x2dd;" horiz-adv-x="1126" 
d="M178 1141l346 334l230 -72l-500 -262h-76zM547 1141l346 334l229 -72l-499 -262h-76z" />
    <glyph glyph-name="uni03A9" unicode="&#x3a9;" horiz-adv-x="1511" 
d="M1417 358h35l-63 -358h-551q8 44 34 112t55 142.5t57 167.5t46.5 220.5t18.5 268.5q0 150 -17 256.5t-41.5 164.5t-66.5 90t-78.5 40t-89.5 8t-89.5 -8t-78.5 -40t-66.5 -90t-41.5 -164.5t-17 -256.5q0 -141 18.5 -268.5t46.5 -220.5t57 -167.5t55 -142.5t34 -112h-551
l-64 358h35q14 -34 39.5 -58t56.5 -35.5t58.5 -16t54.5 -4.5h232q-7 19 -31.5 39.5t-63.5 51t-67 60.5q-122 129 -170.5 254.5t-48.5 272.5q0 122 38 227t111 185t189.5 125.5t263.5 45.5t263.5 -45.5t189.5 -125.5t111 -185t38 -227q0 -147 -48.5 -272.5t-170.5 -254.5
q-28 -30 -67 -60.5t-63.5 -51t-31.5 -39.5h231q27 0 54.5 4.5t58.5 16t56.5 35.5t39.5 58z" />
    <glyph glyph-name="uni03BC" unicode="&#x3bc;" horiz-adv-x="1140" 
d="M997 188q0 -71 18.5 -89.5t86.5 -26.5v-35l-303 -53q-24 -4 -38.5 6t-16.5 22l-3 11v180q-24 -57 -82.5 -108.5t-130.5 -82t-135 -30.5v-306q0 -76 20.5 -102.5t84.5 -26.5v-34l-301 -54q-26 -4 -41 5.5t-17 21.5l-2 12v1235v14q0 34 -0.5 48.5t-4 34t-9.5 26t-19.5 15.5
t-32 12.5t-48.5 7.5v35l368 39v-664q0 -87 41.5 -128.5t130.5 -41.5q45 0 96 37t82 96v463q0 95 -5 114q-9 32 -50 43q-16 4 -41 7v35l352 39v-777z" />
    <glyph glyph-name="pi" unicode="&#x3c0;" horiz-adv-x="1191" 
d="M1075 135l33 -18q-10 -60 -58.5 -97.5t-134.5 -37.5q-50 0 -87.5 21t-54 50.5t-26.5 59t-11 50.5l-1 21v578h-235l-27 -404q-2 -50 -21.5 -102t-49.5 -94.5t-65.5 -82.5t-70.5 -70t-64 -53t-47 -34l-18 -12l-20 27q90 69 153.5 200t69.5 234l27 391q-79 -4 -166.5 -38.5
t-151.5 -115.5l-33 21q2 6 6 17.5t19.5 43.5t33 61.5t47.5 66t63 63t79 45t96 20.5h527q50 0 81.5 2t62.5 9.5t48.5 21.5t29 37.5t15.5 58.5h35q0 -58 -4 -100t-18.5 -84.5t-39 -69t-68 -43t-103.5 -16.5v-526q0 -39 8.5 -68t20.5 -43t24 -22t21 -9l8 -2q24 0 40.5 11
t21.5 21z" />
    <glyph glyph-name="uni2010" unicode="&#x2010;" horiz-adv-x="915" 
d="M776 426h-645v190h645v-190z" />
    <glyph glyph-name="endash" unicode="&#x2013;" horiz-adv-x="1148" 
d="M0 586h1149v-140h-1149v140z" />
    <glyph glyph-name="emdash" unicode="&#x2014;" horiz-adv-x="2160" 
d="M0 586h2161v-140h-2161v140z" />
    <glyph glyph-name="quoteleft" unicode="&#x2018;" horiz-adv-x="548" 
d="M211 1337q68 106 172 162l23 -29q-54 -41 -88 -98t-34.5 -88.5t11.5 -40.5q73 -7 115 -49q51 -47 51.5 -118t-49.5 -122q-50 -50 -120 -50t-120 50q-47 47 -48.5 123t24 139.5t63.5 120.5z" />
    <glyph glyph-name="quoteright" unicode="&#x2019;" horiz-adv-x="559" 
d="M362 1069q-68 -106 -172 -162l-22 29q54 41 88 98t34.5 88.5t-11.5 40.5q-73 7 -115 49q-51 47 -51.5 118t49.5 122q50 50 120 50t119 -50q47 -47 48.5 -123t-24 -139.5t-63.5 -120.5z" />
    <glyph glyph-name="quotesinglbase" unicode="&#x201a;" 
d="M369 -109q-67 -104 -172 -161l-23 28q54 41 88 98t34.5 89t-11.5 41q-73 7 -115 49q-51 47 -51.5 117.5t49.5 121.5q50 50 120 50t120 -50q47 -47 48.5 -123t-24 -139.5t-63.5 -120.5z" />
    <glyph glyph-name="quotedblleft" unicode="&#x201c;" horiz-adv-x="1083" 
d="M193 1348q67 104 172 161l22 -28q-54 -41 -88 -98t-34.5 -89t11.5 -41q73 -7 115 -49q51 -47 51.5 -117.5t-49.5 -121.5q-49 -49 -119 -49t-120 49q-47 47 -48.5 123t24 139.5t63.5 120.5zM705 1348q67 104 172 161l22 -28q-54 -41 -88 -98t-34.5 -89t11.5 -41
q73 -7 115 -49q51 -47 51.5 -117.5t-49.5 -121.5q-49 -49 -119 -49t-120 49q-47 47 -48.5 123t24 139.5t63.5 120.5z" />
    <glyph glyph-name="quotedblright" unicode="&#x201d;" horiz-adv-x="1067" 
d="M362 1069q-68 -106 -172 -162l-22 29q54 41 88 98t34.5 88.5t-11.5 40.5q-73 7 -115 49q-51 47 -51.5 118t49.5 122q50 50 120 50t119 -50q47 -47 48.5 -123t-24 -139.5t-63.5 -120.5zM874 1069q-68 -106 -172 -162l-22 29q54 41 88 98t34.5 88.5t-11.5 40.5
q-73 7 -115 49q-51 47 -51.5 118t49.5 122q50 50 120 50t119 -50q47 -47 48.5 -123t-24 -139.5t-63.5 -120.5z" />
    <glyph glyph-name="quotedblbase" unicode="&#x201e;" horiz-adv-x="1067" 
d="M358 -109q-67 -104 -172 -161l-22 28q54 41 88 98t34 89t-12 41q-72 7 -114 49q-51 47 -51.5 117.5t49.5 121.5q50 50 120 50t119 -50q47 -47 48.5 -123t-24 -139.5t-63.5 -120.5zM870 -109q-67 -104 -172 -161l-22 28q54 41 88 98t34 89t-12 41q-72 7 -114 49
q-51 47 -51.5 117.5t49.5 121.5q50 50 120 50t119 -50q47 -47 48.5 -123t-24 -139.5t-63.5 -120.5z" />
    <glyph glyph-name="dagger" unicode="&#x2020;" horiz-adv-x="870" 
d="M434 1321q-41 0 -70.5 29.5t-29.5 70.5q0 40 29.5 69.5t70.5 29.5q40 0 69 -29.5t29 -69.5q0 -41 -29 -70.5t-69 -29.5zM250 930q43 -30 80 -90l-11 -9q-12 16 -28 28.5t-31 19t-27.5 10.5t-20.5 3t-9 -5q-4 -37 -25 -58q-25 -26 -60 -26.5t-61 24.5q-25 27 -25.5 61.5
t25.5 59.5q24 25 61.5 26t70 -11.5t61.5 -32.5zM453 825q0 -13 1.5 -35t24 -82t64.5 -110q-45 -233 -70 -518t-27 -454l-2 -169h-18q0 25 -0.5 70t-5.5 179.5t-14.5 265t-30 305t-49.5 321.5q42 53 64.5 109.5t23.5 86.5l2 31q0 55 -23.5 146t-23.5 145q0 5 0.5 13.5t3.5 30
t9.5 38t20 30t31.5 13.5q29 0 45.5 -31.5t18.5 -62.5l2 -31q0 -54 -23.5 -143.5t-23.5 -147.5zM809 948q26 -25 26 -60t-26 -61q-25 -25 -60 -24.5t-61 26.5q-20 20 -24 58q-1 4 -9 5t-21 -3t-27.5 -10.5t-31 -19t-28.5 -28.5l-10 9q40 65 81 90q29 20 61 32.5t69 11.5
t61 -26z" />
    <glyph glyph-name="daggerdbl" unicode="&#x2021;" horiz-adv-x="1107" 
d="M682 504q-32 -22 -55.5 -52t-34 -57t-16.5 -50.5t-6 -37.5l-1 -14q0 -66 31 -144.5t31 -144.5q0 -6 -0.5 -16.5t-5 -37t-12 -47t-24 -37t-38.5 -16.5q-36 0 -56.5 38.5t-22.5 77.5l-3 38q0 66 30.5 142t30.5 147q0 6 -0.5 16t-6 38t-16.5 53t-34.5 54.5t-56.5 49.5
q33 22 56.5 52.5t34 57.5t16.5 51t7 38v14q0 65 -30.5 143t-30.5 146q0 6 0.5 16.5t5 37t12 46.5t24.5 36.5t40 16.5q22 0 38.5 -16t24 -38.5t12 -44.5t4.5 -38l1 -16q0 -67 -31 -143t-31 -146q0 -6 0.5 -16t6.5 -38t16.5 -53.5t34 -55.5t55.5 -50zM834 864q-1 5 -10.5 6.5
t-26 -2.5t-35 -12t-38.5 -23t-36 -34l-10 8q43 74 98 111q35 25 74.5 40.5t86 14t75.5 -32.5q31 -31 31 -73.5t-31 -73.5q-32 -31 -75.5 -31t-74.5 31q-28 28 -28 71zM551 1262q-51 0 -87 34.5t-36 85.5t36 87t87 36q50 0 85.5 -36t35.5 -87t-35.5 -85.5t-85.5 -34.5z
M551 -248q49 0 85 -36t36 -85q0 -52 -35.5 -87.5t-85.5 -35.5q-51 0 -87 35.5t-36 87.5q0 50 36 85.5t87 35.5zM238 793q-31 -31 -74.5 -31t-75.5 31q-31 31 -31 73.5t31 73.5q29 31 75.5 32.5t86 -14t74.5 -40.5q51 -34 98 -111l-12 -8q-24 30 -60 50t-56.5 21t-25.5 -6
q-4 -45 -30 -71zM862 225q31 32 74.5 32t75.5 -32q31 -31 31 -73.5t-31 -73.5q-29 -29 -75.5 -30.5t-86 14t-74.5 38.5q-59 44 -98 113l10 8q16 -19 36 -34.5t38.5 -23.5t35 -12t26 -3t10.5 6q0 43 28 71zM268 154q5 -5 25 -4.5t56.5 20.5t60.5 51l12 -8q-43 -72 -98 -113
q-35 -23 -74.5 -38.5t-86 -14t-75.5 30.5q-31 31 -31 73.5t31 73.5q31 32 75 32t75 -32q27 -27 30 -71z" />
    <glyph glyph-name="bullet" unicode="&#x2022;" horiz-adv-x="1024" 
d="M512 451q-103 0 -176.5 72.5t-73.5 174.5q0 104 73.5 177t176.5 73q104 0 177 -73t73 -177q0 -103 -73 -175t-177 -72z" />
    <glyph glyph-name="ellipsis" unicode="&#x2026;" horiz-adv-x="1773" 
d="M522 156q0 -72 -51 -122t-123 -50q-71 0 -121.5 50t-50.5 122t50.5 123t121.5 51q72 0 123 -51t51 -123zM1065 156q0 -72 -50.5 -122t-121.5 -50q-72 0 -123 50t-51 122t51 123t123 51q71 0 121.5 -51t50.5 -123zM1610 156q0 -72 -51 -122t-123 -50t-123 50t-51 122
t51 123t123 51t123 -51t51 -123z" />
    <glyph glyph-name="perthousand" unicode="&#x2030;" horiz-adv-x="2316" 
d="M260 0l934 1442h133l-934 -1442h-133zM322 1391q282 0 282 -373q0 -81 -13 -143t-44 -113t-87.5 -78t-137.5 -27q-82 0 -139 27t-88 78t-44.5 113t-13.5 143q0 373 285 373zM322 692q29 0 46 8t29.5 25.5t17.5 58.5t7 92t2 142q0 111 -3.5 171.5t-15 101t-30.5 53
t-53 12.5q-29 0 -46.5 -9t-30 -28.5t-18 -61.5t-8 -95.5t-2.5 -143.5q0 -88 2.5 -141.5t8.5 -93t18.5 -57.5t29.5 -26t46 -8zM1266 784q282 0 282 -372q0 -81 -13 -143t-44 -113t-87.5 -78t-137.5 -27q-82 0 -139 27t-88 78t-44.5 113t-13.5 143q0 372 285 372zM1266 86
q29 0 46 8t29.5 25.5t17.5 58.5t7 92t2 142q0 111 -3.5 171.5t-15 101t-30.5 53t-53 12.5q-29 0 -46.5 -9t-30 -28.5t-18 -61.5t-8 -95.5t-2.5 -143.5q0 -88 2.5 -141.5t8.5 -93t18.5 -57.5t29.5 -26t46 -8zM1960 784q283 0 283 -372q0 -81 -13.5 -143t-44 -113t-87.5 -78
t-138 -27q-82 0 -139 27t-88 78t-44.5 113t-13.5 143q0 372 285 372zM1960 86q29 0 46 8t29.5 25.5t17.5 58.5t7 92t2 142q0 111 -3.5 171.5t-15 101t-30.5 53t-53 12.5q-29 0 -46.5 -9t-30 -28.5t-18 -61.5t-8 -95.5t-2.5 -143.5q0 -88 2.5 -141.5t8.5 -93t18.5 -57.5
t29.5 -26t46 -8z" />
    <glyph glyph-name="guilsinglleft" unicode="&#x2039;" horiz-adv-x="694" 
d="M575 1034v-80l-251 -409l251 -398v-79l-473 477z" />
    <glyph glyph-name="guilsinglright" unicode="&#x203a;" horiz-adv-x="694" 
d="M98 954v80l473 -489l-473 -477v79l252 398z" />
    <glyph glyph-name="fraction" unicode="&#x2044;" horiz-adv-x="718" 
d="M938 1503h133l-1239 -1503h-131z" />
    <glyph glyph-name="Euro" unicode="&#x20ac;" horiz-adv-x="1275" 
d="M831 1425q-66 0 -111.5 -18t-78.5 -56t-53 -106t-30.5 -158.5t-14.5 -222.5h463l-27 -35h-438v-108v-107h430l-25 -34h-403q4 -132 14.5 -222.5t30.5 -159t53 -107t78.5 -57t111.5 -18.5q134 0 211.5 91.5t77.5 228.5h35v-273q-61 -45 -134 -63t-190 -18
q-114 0 -205.5 31t-154.5 84.5t-108.5 131t-71 163t-37.5 188.5h-209l25 34h180q-6 53 -6 107q0 47 6 108h-205l25 35h184q75 596 577 596q126 0 193.5 -17.5t130.5 -64.5v-272h-35q0 138 -76 228.5t-213 90.5z" />
    <glyph glyph-name="afii61289" unicode="&#x2113;" horiz-adv-x="735" 
d="M674 197l33 -11q-6 -85 -74.5 -144.5t-143.5 -59.5q-52 0 -94 9t-84.5 35t-71.5 69.5t-47 117.5t-18 174v66l-129 -99v107l129 102v420q0 150 29 263t75 170.5t100.5 81.5t108 9.5t95.5 -59.5q71 -77 91.5 -221t-18 -292.5t-127.5 -232.5l-102 -96l-4 -231
q-10 -151 31.5 -218.5t121.5 -58.5q73 16 99 99zM428 1030v-311l53 51q61 58 96.5 136.5t44 154t2.5 148.5t-23.5 126.5t-39.5 83.5q-40 53 -72 21q-61 -59 -61 -410z" />
    <glyph glyph-name="trademark" unicode="&#x2122;" horiz-adv-x="1474" 
d="M27 1442h548v-168h-34q0 37 -17 64.5t-41 40t-48 19.5t-41 8l-17 1h-15v-430q0 -41 21 -64.5t49 -23.5v-35h-262v35q28 0 49 23.5t21 64.5v430h-15q-7 0 -18 -1t-39 -8t-50 -19.5t-39.5 -40t-17.5 -64.5h-34v168zM1356 975q0 -40 22 -63t52 -23v-35h-252v35q27 0 43 22
t16 64v362l-205 -489h-35l-217 487v-252q2 -2 0 -20.5t3.5 -48t13.5 -57.5t31 -48t55 -20v-35h-252v35q35 0 59.5 20t35 48.5t15.5 57t5 48.5l-1 20v295q-20 29 -86 29v35h211l195 -420l172 420h184v-35q-29 0 -47 -18.5t-18 -55.5v-358z" />
    <glyph glyph-name="Omega" unicode="&#x2126;" horiz-adv-x="1513" 
d="M1417 358h35l-63 -358h-551q8 44 34 112t55 142.5t57 167.5t46.5 220.5t18.5 268.5q0 150 -17 256.5t-41.5 164.5t-66.5 90t-78.5 40t-89.5 8t-89.5 -8t-78.5 -40t-66.5 -90t-41.5 -164.5t-17 -256.5q0 -141 18.5 -268.5t46.5 -220.5t57 -167.5t55 -142.5t34 -112h-551
l-64 358h35q14 -34 39.5 -58t56.5 -35.5t58.5 -16t54.5 -4.5h232q-7 19 -31.5 39.5t-63.5 51t-67 60.5q-122 129 -170.5 254.5t-48.5 272.5q0 122 38 227t111 185t189.5 125.5t263.5 45.5t263.5 -45.5t189.5 -125.5t111 -185t38 -227q0 -147 -48.5 -272.5t-170.5 -254.5
q-28 -30 -67 -60.5t-63.5 -51t-31.5 -39.5h231q27 0 54.5 4.5t58.5 16t56.5 35.5t39.5 58z" />
    <glyph glyph-name="estimated" unicode="&#x212e;" horiz-adv-x="1826" 
d="M369 1239v-424h1097v414q-108 97 -251.5 152t-303.5 55q-155 0 -295 -52t-247 -145zM911 1505q172 0 328.5 -59.5t270 -160.5t180.5 -240.5t67 -292.5h-1388v-488q106 -92 246 -143t296 -51q164 0 311 57.5t255 159.5h98q-119 -134 -292 -210.5t-372 -76.5
q-172 0 -328.5 59.5t-269.5 160t-180 240t-67 292.5t67 292.5t180 240.5t269.5 160.5t328.5 59.5z" />
    <glyph glyph-name="partialdiff" unicode="&#x2202;" horiz-adv-x="1171" 
d="M539 1524q133 0 241 -59t180.5 -166t105.5 -266.5t17 -352.5q-27 -331 -164.5 -514.5t-390.5 -183.5q-223 0 -343.5 121.5t-100.5 361.5q6 76 21 141.5t45.5 129.5t73.5 109t109.5 73t149.5 28q38 0 83 -11t92 -33t84 -62.5t51 -91.5q16 175 9 302.5t-25.5 212t-56 135
t-81 71t-100.5 20.5q-80 0 -152 -51t-112 -126t-39 -149l-41 -14l-70 219q63 73 170 114.5t244 41.5zM528 16q102 0 164 164t92 496q-20 69 -84 119.5t-114 50.5q-87 0 -147.5 -109t-78.5 -315q-13 -163 1.5 -252t53.5 -121.5t113 -32.5z" />
    <glyph glyph-name="Delta" unicode="&#x2206;" horiz-adv-x="1462" 
d="M768 1511l602 -1445l-31 -66h-1261l-12 53l2 4l587 1418zM178 90h864l-432 989z" />
    <glyph glyph-name="product" unicode="&#x220f;" horiz-adv-x="1718" 
d="M1657 1407q-82 0 -139.5 -52t-57.5 -151v-1104q0 -112 58.5 -175.5t138.5 -63.5v-35h-727v35q79 0 137.5 63.5t58.5 175.5v1100q0 101 -57 154t-139 53h-152q-80 0 -137 -53t-57 -154v-1100q0 -112 58 -175.5t136 -63.5v-35h-725v35q79 0 137 63.5t58 175.5v1104
q0 100 -56 151.5t-139 51.5v35h1604v-35z" />
    <glyph glyph-name="summation" unicode="&#x2211;" horiz-adv-x="1392" 
d="M455 1407l407 -711l-506 -862h140q122 0 228 21.5t180.5 54t139 81t103.5 92t72.5 99t48.5 88.5t30 74h33l-55 -545h-1120l395 693l-508 950h1208l45 -473h-34q-62 177 -272 307.5t-435 130.5h-100z" />
    <glyph glyph-name="minus" unicode="&#x2212;" horiz-adv-x="1282" 
d="M1190 426h-1092v190h1092v-190z" />
    <glyph glyph-name="uni2215" unicode="&#x2215;" horiz-adv-x="720" 
d="M938 1503h133l-1239 -1503h-131z" />
    <glyph glyph-name="uni2219" unicode="&#x2219;" 
d="M416 610q0 -53 -37.5 -90t-91.5 -37t-90.5 37t-36.5 90q0 54 36.5 91.5t90.5 37.5t91.5 -37.5t37.5 -91.5z" />
    <glyph glyph-name="radical" unicode="&#x221a;" horiz-adv-x="1157" 
d="M721 160l280 1616l111 -31l-369 -2112l-36 -14l-394 922q-35 82 -92.5 125t-114.5 20l-12 31l326 141z" />
    <glyph glyph-name="infinity" unicode="&#x221e;" horiz-adv-x="1636" 
d="M1282 481q47 47 47 115q0 70 -47 117t-117 47t-114 -47l-117 -117l117 -115q49 -49 114 -49t117 49zM563 481l115 117l-117 115q-44 47 -115 47q-69 0 -116 -47t-47 -117q0 -68 47 -115q52 -49 116 -49q65 0 117 49zM1409 840q101 -100 101 -243t-101 -243
q-102 -102 -244 -102q-141 0 -243 102l-115 115l-117 -115q-102 -102 -244 -102q-70 0 -134.5 27t-112.5 75q-97 99 -96 242.5t96 245.5q100 100 247 100q142 0 244 -102l117 -115l115 115q102 102 243 102q142 0 244 -102z" />
    <glyph glyph-name="integral" unicode="&#x222b;" horiz-adv-x="831" 
d="M764 1612q18 -23 22.5 -59.5t-6.5 -63.5q-15 -43 -57.5 -62t-83.5 0q-43 17 -61 58t-3 84q20 48 62 57q8 2 -4 13q-18 16 -55 16q-6 0 -10.5 -0.5t-15 -4t-18 -10.5t-18 -21t-17.5 -33.5t-13.5 -51t-9 -70.5t-2 -94.5t6.5 -120.5l72 -903q32 -381 -47 -578.5t-254 -197.5
q-63 0 -113 24t-71 52q-18 25 -23.5 59t4.5 64q15 43 57.5 61.5t83.5 -0.5q43 -15 62 -57.5t2 -83.5q-17 -46 -57 -56q-12 -5 1 -15q18 -13 56 -13q10 0 19 3t31.5 22.5t31.5 62t18.5 120t-6.5 197.5l-72 901q-32 381 48.5 580t253.5 199q62 0 112.5 -24.5t73.5 -53.5z" />
    <glyph glyph-name="approxequal" unicode="&#x2248;" horiz-adv-x="1089" 
d="M639 625l-246 88q-28 10 -70.5 10.5t-89 -8t-87.5 -35t-60 -66.5l-31 13q30 73 67.5 127t74 83t74 47t69 21.5t56.5 3t39 -4.5l14 -3l243 -90q66 -23 169.5 3t139.5 101l31 -16q-30 -73 -68 -127t-74.5 -83t-74 -47t-68.5 -21.5t-55.5 -3t-38.5 4.5zM639 252l-246 88
q-28 10 -70.5 11t-89 -8t-87.5 -35t-60 -66l-31 12q30 73 67.5 127t74 83t74 47t69 21.5t56.5 3t39 -3.5l14 -4l243 -90q65 -23 169 3.5t140 101.5l31 -17q-30 -73 -68 -127t-74.5 -83t-74 -47t-68.5 -21.5t-55.5 -3t-38.5 3.5z" />
    <glyph glyph-name="notequal" unicode="&#x2260;" horiz-adv-x="1079" 
d="M983 705h-303l-115 -252h418v-140h-485l-117 -254l-127 58l90 196h-250v140h316l114 252h-430v139h498l127 276l125 -59l-99 -217h238v-139z" />
    <glyph glyph-name="lessequal" unicode="&#x2264;" horiz-adv-x="1089" 
d="M96 137h885v-178h-885v178zM451 705l530 -279v-211l-866 442v97l866 444v-215z" />
    <glyph glyph-name="greaterequal" unicode="&#x2265;" horiz-adv-x="1089" 
d="M113 137h884v-178h-884v178zM113 426l530 279l-530 278v215l866 -444v-97l-866 -442v211z" />
    <glyph glyph-name="lozenge" unicode="&#x25ca;" horiz-adv-x="1144" 
d="M616 1501l426 -831l-426 -832h-92l-426 832l426 831h92zM856 670l-287 551l-286 -551l286 -551z" />
    <glyph glyph-name="zero.taboldstyle" unicode="&#xf643;" horiz-adv-x="1187" 
d="M604 965q239 0 365.5 -124.5t126.5 -371.5q0 -245 -126 -366t-366 -121q-238 0 -363.5 122t-125.5 365q0 239 127 367.5t362 128.5zM604 16q52 0 83.5 12.5t53.5 38.5t32 83.5t14 128t4 190.5q0 101 -2 165t-9.5 120.5t-19.5 86.5t-34 52t-50.5 29.5t-71.5 7.5t-72 -7.5
t-51 -29.5t-34 -52t-19.5 -86.5t-9.5 -120t-2 -165.5q0 -100 2 -163t9.5 -118.5t19.5 -85t34 -51t51 -28.5t72 -7z" />
    <glyph glyph-name="one.taboldstyle" unicode="&#xf644;" horiz-adv-x="1050" 
d="M418 195v553q0 71 -33 89.5t-121 18.5v35l410 74v-770q0 -38 6.5 -66.5t21 -45.5t28 -27.5t36 -14.5t36.5 -5t38 -1v-35h-615v35q31 0 52 1.5t50.5 10.5t47 25t30.5 47.5t13 75.5z" />
    <glyph glyph-name="two.taboldstyle" unicode="&#xf645;" horiz-adv-x="1099" 
d="M911 356h35l-98 -356h-701l215 227q174 159 230 271.5t39 214.5q-19 109 -111.5 162.5t-185.5 13.5q-60 -30 -59 -51q2 -6 8 -7q49 3 82 -30q33 -34 32 -81.5t-35 -80.5q-34 -34 -81.5 -33t-79.5 35q-23 24 -30 57t3 62q27 83 152 162q29 18 90.5 31t138.5 11t148 -20
t122.5 -69.5t59.5 -131.5q7 -69 -10.5 -129.5t-53 -105t-80 -81.5t-95.5 -66t-95.5 -51t-83 -43.5t-55.5 -37.5l313 11q56 0 105.5 28.5t80.5 87.5z" />
    <glyph glyph-name="three.taboldstyle" unicode="&#xf646;" horiz-adv-x="1134" 
d="M1044 -25q7 -105 -24 -194t-83.5 -147.5t-119.5 -99.5t-131.5 -59t-120.5 -18q-138 0 -221.5 22.5t-146.5 80.5q-31 28 -46.5 71.5t-5.5 85.5q13 64 69.5 99t119.5 20q64 -15 97 -70t18 -120q-12 -54 -76 -88q-13 -5 5 -22q44 -40 165 -44h20q75 0 127 35t76 92.5
t31.5 120.5t1.5 131q-3 27 -12.5 58t-37 75t-67.5 80t-111 67.5t-161 43.5v34q98 30 161 82t85 109.5t20.5 116t-25 106t-59.5 76.5q-35 29 -86.5 38.5t-105 -1t-103.5 -47t-78 -93.5l-35 9q10 69 35 125.5t58 91t70.5 60t73 37t64.5 18.5t47 7l17 1q72 0 139 -25.5t119 -70
t81 -107.5t29.5 -134t-41 -155t-124.5 -164q133 -54 209.5 -145t82.5 -189z" />
    <glyph glyph-name="four.taboldstyle" unicode="&#xf647;" horiz-adv-x="1191" 
d="M1079 -98h-213v-148q0 -75 10.5 -126.5t25 -77.5t41 -40t45.5 -16t52 -2v-35h-645v35q23 0 37 1t34.5 6.5t33.5 15t27.5 28t22.5 45t13.5 66t5.5 90.5v158h-469v35l676 1028l90 -19v-901h213v-143zM569 45v551l-290 -442q-25 -39 -32.5 -63t4 -33t22.5 -11t32 -2h264z
" />
    <glyph glyph-name="five.taboldstyle" unicode="&#xf648;" horiz-adv-x="1132" 
d="M231 377q135 23 243 17.5t191.5 -25t145.5 -58.5t104.5 -83t68 -98t37 -104t11.5 -100q0 -113 -41 -203.5t-112 -148t-164.5 -87.5t-200.5 -30q-200 0 -319 97q-31 27 -46 71t-6 88q15 63 72 97.5t121 19.5q63 -14 97.5 -70t19.5 -120q-15 -63 -70 -95q-22 -13 -2 -29
q31 -24 133 -24q68 0 123 15.5t91 41.5t60.5 60.5t34.5 73.5t9.5 79t-11.5 78q-5 17 -13 35t-23.5 43.5t-35.5 49.5t-51 50t-67.5 46.5t-87.5 38t-108.5 26.5t-132 9t-157.5 -11l152 819h709l-88 -268h-629z" />
    <glyph glyph-name="six.taboldstyle" unicode="&#xf649;" horiz-adv-x="1212" 
d="M739 965q84 0 151 -29.5t109.5 -77.5t71 -113.5t40 -132t11.5 -137.5q0 -154 -68 -267.5t-182 -169.5t-258 -56q-255 0 -388.5 174t-133.5 485q0 183 51.5 339.5t138.5 260t199 161.5t234 58q58 0 108 -14.5t82.5 -37t51.5 -41.5t30 -36q19 -30 19 -71t-21 -74
q-31 -51 -87 -63.5t-107 18.5q-49 31 -61.5 88t18.5 106t86 58q9 1 -7 11q-38 21 -112 21q-49 0 -88 -13.5t-79.5 -55.5t-68 -111.5t-45 -190t-18.5 -282.5q22 59 62.5 100t89 59.5t89 26t82.5 7.5zM614 16q116 0 161.5 90.5t45.5 327.5q0 200 -52.5 322.5t-137.5 122.5
q-56 0 -124 -52.5t-91 -140.5q5 -355 46.5 -512.5t151.5 -157.5z" />
    <glyph glyph-name="seven.taboldstyle" unicode="&#xf64a;" horiz-adv-x="1138" 
d="M166 946h924l-154 -264q-59 -105 -103 -213t-70 -218t-42.5 -201t-23 -206t-8 -185t-1.5 -183h-291q0 119 11.5 217.5t43.5 213.5t87.5 229.5t145.5 252t216 293.5h-559q-56 0 -107.5 -30t-82.5 -89h-35z" />
    <glyph glyph-name="eight.taboldstyle" unicode="&#xf64b;" horiz-adv-x="1175" 
d="M717 874q59 28 82.5 91.5t23.5 169.5q0 67 -14.5 118.5t-37.5 83.5t-55.5 52.5t-65 28t-68.5 7.5q-85 0 -139 -58t-54 -167q0 -99 77.5 -179t250.5 -147zM838 268q0 48 -20.5 93.5t-49 78t-74 66.5t-79 53.5t-80.5 44.5q-44 23 -86 47q-50 -26 -92 -108t-42 -219
q0 -136 77 -222t218 -86q103 0 165.5 64.5t62.5 187.5zM1104 414q0 -116 -37.5 -201t-105.5 -134.5t-155.5 -73t-195.5 -23.5q-520 0 -520 329q0 126 98.5 229.5t223.5 133.5q-136 84 -203.5 188.5t-67.5 208.5q0 189 124.5 289t316.5 100q191 0 309.5 -78.5t118.5 -220.5
q0 -100 -67 -188.5t-189 -116.5q150 -75 250 -196.5t100 -245.5z" />
    <glyph glyph-name="nine.taboldstyle" unicode="&#xf64c;" horiz-adv-x="1175" 
d="M461 -18q-84 0 -151 28.5t-109.5 75.5t-71 111t-40 129.5t-11.5 136.5q0 131 39 229t109 157t160 87.5t200 28.5q170 0 288.5 -85.5t176 -237t57.5 -357.5q0 -386 -160 -607t-463 -221q-213 0 -297 137q-21 31 -20 77.5t25 82.5q34 55 96 69t117 -20q54 -34 67.5 -96.5
t-20.5 -116.5q-35 -53 -99 -63q-10 -1 10 -12q45 -23 121 -23q67 0 111 9t79.5 38t54.5 71.5t32 122t17 175t5 244.5q-66 -170 -323 -170zM586 930q-116 0 -161.5 -94t-45.5 -332q0 -199 52.5 -317.5t137.5 -118.5q36 0 76.5 15.5t82 57t56.5 101.5q0 162 -9.5 282
t-31.5 214.5t-61.5 143t-95.5 48.5z" />
    <glyph glyph-name="dollar.taboldstyle" unicode="&#xf653;" horiz-adv-x="1216" 
d="M606 16q78 0 133 25t80.5 65t30 92t-13.5 105t-55 104t-89 89l-86 53v-533zM571 956v469q-54 0 -97.5 -21t-69 -55.5t-32.5 -80.5t6 -94.5t54 -99.5t105 -93zM852 772q138 -91 213.5 -191t84.5 -210.5t-69 -220.5q-47 -57 -97 -90.5t-144.5 -55.5t-233.5 -22v-250h-35
v250q-94 4 -178 19t-136 33t-91 35t-56 29l-16 11v393h17q153 -430 460 -484v553l-194 123q-471 295 -230 611q4 6 12.5 16.5t43.5 37.5t78.5 47t121 37t168.5 17v250h35v-250q145 -3 268 -27.5t174 -47.5l50 -23v-344h-17q-15 40 -35 81t-62 100.5t-91 104.5t-125 80
t-162 41v-491z" />
    <glyph glyph-name="cent.taboldstyle" unicode="&#xf654;" horiz-adv-x="1091" 
d="M412 514q0 -279 237 -346v760q-30 -6 -59 -20.5t-62 -46t-58 -75t-41.5 -114.5t-16.5 -158zM983 264l29 -18q-11 -38 -35 -77.5t-63 -79t-99 -68.5t-131 -39v-224h-35v224q-125 0 -222.5 43t-155.5 115t-87.5 158t-29.5 179q0 87 32 170t92 152.5t156.5 114.5t214.5 51
v249h35v-249q165 0 268 -91q27 -24 39 -62.5t2 -74.5q-15 -55 -64 -84t-104 -14q-55 13 -83 62.5t-13 103.5q11 55 64 82q13 6 -9 20q-37 23 -100 23v-770q77 -11 171 22t128 82z" />
    <glyph glyph-name="dollar.oldstyle" unicode="&#xf724;" horiz-adv-x="1216" 
d="M606 16q78 0 133 25t80.5 65t30 92t-13.5 105t-55 104t-89 89l-86 53v-533zM571 956v469q-54 0 -97.5 -21t-69 -55.5t-32.5 -80.5t6 -94.5t54 -99.5t105 -93zM852 772q138 -91 213.5 -191t84.5 -210.5t-69 -220.5q-47 -57 -97 -90.5t-144.5 -55.5t-233.5 -22v-250h-35
v250q-94 4 -178 19t-136 33t-91 35t-56 29l-16 11v393h17q153 -430 460 -484v553l-194 123q-471 295 -230 611q4 6 12.5 16.5t43.5 37.5t78.5 47t121 37t168.5 17v250h35v-250q145 -3 268 -27.5t174 -47.5l50 -23v-344h-17q-15 40 -35 81t-62 100.5t-91 104.5t-125 80
t-162 41v-491z" />
    <glyph glyph-name="zero.oldstyle" unicode="&#xf730;" horiz-adv-x="1187" 
d="M604 965q239 0 365.5 -124.5t126.5 -371.5q0 -245 -126 -366t-366 -121q-238 0 -363.5 122t-125.5 365q0 239 127 367.5t362 128.5zM604 16q52 0 83.5 12.5t53.5 38.5t32 83.5t14 128t4 190.5q0 101 -2 165t-9.5 120.5t-19.5 86.5t-34 52t-50.5 29.5t-71.5 7.5t-72 -7.5
t-51 -29.5t-34 -52t-19.5 -86.5t-9.5 -120t-2 -165.5q0 -100 2 -163t9.5 -118.5t19.5 -85t34 -51t51 -28.5t72 -7z" />
    <glyph glyph-name="one.oldstyle" unicode="&#xf731;" horiz-adv-x="1050" 
d="M418 195v553q0 71 -33 89.5t-121 18.5v35l410 74v-770q0 -38 6.5 -66.5t21 -45.5t28 -27.5t36 -14.5t36.5 -5t38 -1v-35h-615v35q31 0 52 1.5t50.5 10.5t47 25t30.5 47.5t13 75.5z" />
    <glyph glyph-name="two.oldstyle" unicode="&#xf732;" horiz-adv-x="1099" 
d="M911 356h35l-98 -356h-701l215 227q174 159 230 271.5t39 214.5q-19 109 -111.5 162.5t-185.5 13.5q-60 -30 -59 -51q2 -6 8 -7q49 3 82 -30q33 -34 32 -81.5t-35 -80.5q-34 -34 -81.5 -33t-79.5 35q-23 24 -30 57t3 62q27 83 152 162q29 18 90.5 31t138.5 11t148 -20
t122.5 -69.5t59.5 -131.5q7 -69 -10.5 -129.5t-53 -105t-80 -81.5t-95.5 -66t-95.5 -51t-83 -43.5t-55.5 -37.5l313 11q56 0 105.5 28.5t80.5 87.5z" />
    <glyph glyph-name="three.oldstyle" unicode="&#xf733;" horiz-adv-x="1134" 
d="M1044 -25q7 -105 -24 -194t-83.5 -147.5t-119.5 -99.5t-131.5 -59t-120.5 -18q-138 0 -221.5 22.5t-146.5 80.5q-31 28 -46.5 71.5t-5.5 85.5q13 64 69.5 99t119.5 20q64 -15 97 -70t18 -120q-12 -54 -76 -88q-13 -5 5 -22q44 -40 165 -44h20q75 0 127 35t76 92.5
t31.5 120.5t1.5 131q-3 27 -12.5 58t-37 75t-67.5 80t-111 67.5t-161 43.5v34q98 30 161 82t85 109.5t20.5 116t-25 106t-59.5 76.5q-35 29 -86.5 38.5t-105 -1t-103.5 -47t-78 -93.5l-35 9q10 69 35 125.5t58 91t70.5 60t73 37t64.5 18.5t47 7l17 1q72 0 139 -25.5t119 -70
t81 -107.5t29.5 -134t-41 -155t-124.5 -164q133 -54 209.5 -145t82.5 -189z" />
    <glyph glyph-name="four.oldstyle" unicode="&#xf734;" horiz-adv-x="1191" 
d="M1079 -98h-213v-148q0 -75 10.5 -126.5t25 -77.5t41 -40t45.5 -16t52 -2v-35h-645v35q23 0 37 1t34.5 6.5t33.5 15t27.5 28t22.5 45t13.5 66t5.5 90.5v158h-469v35l676 1028l90 -19v-901h213v-143zM569 45v551l-290 -442q-25 -39 -32.5 -63t4 -33t22.5 -11t32 -2h264z
" />
    <glyph glyph-name="five.oldstyle" unicode="&#xf735;" horiz-adv-x="1132" 
d="M231 377q135 23 243 17.5t191.5 -25t145.5 -58.5t104.5 -83t68 -98t37 -104t11.5 -100q0 -113 -41 -203.5t-112 -148t-164.5 -87.5t-200.5 -30q-200 0 -319 97q-31 27 -46 71t-6 88q15 63 72 97.5t121 19.5q63 -14 97.5 -70t19.5 -120q-15 -63 -70 -95q-22 -13 -2 -29
q31 -24 133 -24q68 0 123 15.5t91 41.5t60.5 60.5t34.5 73.5t9.5 79t-11.5 78q-5 17 -13 35t-23.5 43.5t-35.5 49.5t-51 50t-67.5 46.5t-87.5 38t-108.5 26.5t-132 9t-157.5 -11l152 819h709l-88 -268h-629z" />
    <glyph glyph-name="six.oldstyle" unicode="&#xf736;" horiz-adv-x="1212" 
d="M739 965q84 0 151 -29.5t109.5 -77.5t71 -113.5t40 -132t11.5 -137.5q0 -154 -68 -267.5t-182 -169.5t-258 -56q-255 0 -388.5 174t-133.5 485q0 183 51.5 339.5t138.5 260t199 161.5t234 58q58 0 108 -14.5t82.5 -37t51.5 -41.5t30 -36q19 -30 19 -71t-21 -74
q-31 -51 -87 -63.5t-107 18.5q-49 31 -61.5 88t18.5 106t86 58q9 1 -7 11q-38 21 -112 21q-49 0 -88 -13.5t-79.5 -55.5t-68 -111.5t-45 -190t-18.5 -282.5q22 59 62.5 100t89 59.5t89 26t82.5 7.5zM614 16q116 0 161.5 90.5t45.5 327.5q0 200 -52.5 322.5t-137.5 122.5
q-56 0 -124 -52.5t-91 -140.5q5 -355 46.5 -512.5t151.5 -157.5z" />
    <glyph glyph-name="seven.oldstyle" unicode="&#xf737;" horiz-adv-x="1138" 
d="M166 946h924l-154 -264q-59 -105 -103 -213t-70 -218t-42.5 -201t-23 -206t-8 -185t-1.5 -183h-291q0 119 11.5 217.5t43.5 213.5t87.5 229.5t145.5 252t216 293.5h-559q-56 0 -107.5 -30t-82.5 -89h-35z" />
    <glyph glyph-name="eight.oldstyle" unicode="&#xf738;" horiz-adv-x="1175" 
d="M717 874q59 28 82.5 91.5t23.5 169.5q0 67 -14.5 118.5t-37.5 83.5t-55.5 52.5t-65 28t-68.5 7.5q-85 0 -139 -58t-54 -167q0 -99 77.5 -179t250.5 -147zM838 268q0 48 -20.5 93.5t-49 78t-74 66.5t-79 53.5t-80.5 44.5q-44 23 -86 47q-50 -26 -92 -108t-42 -219
q0 -136 77 -222t218 -86q103 0 165.5 64.5t62.5 187.5zM1104 414q0 -116 -37.5 -201t-105.5 -134.5t-155.5 -73t-195.5 -23.5q-520 0 -520 329q0 126 98.5 229.5t223.5 133.5q-136 84 -203.5 188.5t-67.5 208.5q0 189 124.5 289t316.5 100q191 0 309.5 -78.5t118.5 -220.5
q0 -100 -67 -188.5t-189 -116.5q150 -75 250 -196.5t100 -245.5z" />
    <glyph glyph-name="nine.oldstyle" unicode="&#xf739;" horiz-adv-x="1175" 
d="M461 -18q-84 0 -151 28.5t-109.5 75.5t-71 111t-40 129.5t-11.5 136.5q0 131 39 229t109 157t160 87.5t200 28.5q170 0 288.5 -85.5t176 -237t57.5 -357.5q0 -386 -160 -607t-463 -221q-213 0 -297 137q-21 31 -20 77.5t25 82.5q34 55 96 69t117 -20q54 -34 67.5 -96.5
t-20.5 -116.5q-35 -53 -99 -63q-10 -1 10 -12q45 -23 121 -23q67 0 111 9t79.5 38t54.5 71.5t32 122t17 175t5 244.5q-66 -170 -323 -170zM586 930q-116 0 -161.5 -94t-45.5 -332q0 -199 52.5 -317.5t137.5 -118.5q36 0 76.5 15.5t82 57t56.5 101.5q0 162 -9.5 282
t-31.5 214.5t-61.5 143t-95.5 48.5z" />
    <glyph glyph-name="cent.oldstyle" unicode="&#xf7a2;" horiz-adv-x="1091" 
d="M412 514q0 -279 237 -346v760q-30 -6 -59 -20.5t-62 -46t-58 -75t-41.5 -114.5t-16.5 -158zM983 264l29 -18q-11 -38 -35 -77.5t-63 -79t-99 -68.5t-131 -39v-224h-35v224q-125 0 -222.5 43t-155.5 115t-87.5 158t-29.5 179q0 87 32 170t92 152.5t156.5 114.5t214.5 51
v249h35v-249q165 0 268 -91q27 -24 39 -62.5t2 -74.5q-15 -55 -64 -84t-104 -14q-55 13 -83 62.5t-13 103.5q11 55 64 82q13 6 -9 20q-37 23 -100 23v-770q77 -11 171 22t128 82z" />
    <glyph glyph-name="fi" unicode="&#xfb01;" horiz-adv-x="1210" 
d="M1049 231q0 -98 16.5 -150.5t67.5 -64.5v-16h-420v16q28 8 45 27t24.5 52t9 60t1.5 76v512q0 64 -25.5 116t-77.5 52h-264v-680q0 -96 17 -148.5t67 -66.5v-16h-420v16q53 17 67.5 68t14.5 147v680h-131l-4 35h135v47q0 284 134.5 408.5t412.5 124.5q105 0 185.5 -40.5
t107.5 -88.5q21 -38 24.5 -84t-14.5 -86q-26 -56 -84.5 -76t-114.5 8t-75.5 85.5t8.5 113.5q27 56 86 72q25 6 7 24q-29 29 -103 36q-13 1 -27 1q-19 0 -34 -1t-47.5 -10t-57.5 -24.5t-55.5 -48.5t-50.5 -78.5t-34 -118t-14 -163.5v-101h266h357v-715z" />
    <glyph glyph-name="fl" unicode="&#xfb02;" horiz-adv-x="1173" 
d="M1065 231q0 -94 16 -138.5t68 -57.5v-35h-420v35q28 8 45 24t24.5 45t9 54t1.5 73v1063q0 99 -72 131q-22 9 -43.5 15.5t-55.5 8t-63.5 -7t-61 -36t-54 -72.5t-37 -123t-14.5 -182v-82h219l-6 -35h-213v-680q0 -94 16 -138t68 -58v-35h-422v35q28 9 45.5 25t25 44.5
t9.5 54.5t2 72v680h-132l-4 35h136v164q0 198 102.5 308t255.5 108q118 0 227 -66l328 68v-1297z" />
    <glyph glyph-name="NULL" horiz-adv-x="0" 
 />
    <glyph glyph-name="CR" 
 />
    <glyph glyph-name="two.superior" horiz-adv-x="552" 
d="M424 950h35l-47 -174h-349l213 311q68 115 22 191q-31 51 -91 55q-65 4 -104 -51q-6 -9 -11 -20l-33 6q6 49 27.5 85t48 52.5t52.5 25.5t43 10l18 1q69 0 114.5 -45t45.5 -109q0 -47 -23.5 -96t-79.5 -117l-123 -178h158q55 0 84 53z" />
    <glyph glyph-name="one.superior" horiz-adv-x="475" 
d="M307 891q0 -26 7.5 -42.5t21 -23.5t25.5 -9.5t28 -2.5v-35h-301v35q94 0 94 78v356q0 34 -19.5 40.5t-38.5 -3.5l-20 -10l-24 35l194 133h33v-551z" />
    <glyph glyph-name="a.superior" horiz-adv-x="636" 
d="M319 1051v131q-76 -18 -108.5 -46.5t-32.5 -70.5q0 -3 0.5 -7.5t4.5 -15.5t10.5 -20t21.5 -16t35 -7q48 0 69 52zM506 995q16 1 20 21l27 -10q-5 -31 -37.5 -53.5t-85.5 -22.5q-4 0 -10.5 0.5t-24 4.5t-31.5 11t-26.5 23t-15.5 37q-11 -31 -55.5 -53.5t-100.5 -22.5
q-5 0 -13.5 0.5t-29.5 6.5t-37 16t-29.5 32t-13.5 53q0 33 10 56.5t26 39t49.5 29t65 22.5t88.5 23q24 6 37 9v63q0 81 -41 111t-100 4q-28 -12 -29 -22l3 -3q28 0 41 -22q14 -20 8.5 -45t-25.5 -37q-20 -15 -45 -10.5t-39 24.5q-20 26 -4 63q21 49 80 80q22 12 49 17.5
t43 4.5l16 -1q99 0 139 -55t40 -158v-160q0 -3 0.5 -8.5t3 -19t7.5 -23.5t15.5 -18t24.5 -7z" />
    <glyph glyph-name="three.superior" horiz-adv-x="565" 
d="M483 993q3 -59 -19 -106t-58.5 -73t-74 -39t-71.5 -13q-98 0 -164 53q-15 10 -22 31t-2 41q6 29 31.5 45t54.5 10q29 -7 45 -33t10 -55q-10 -31 -35 -41q-10 -4 8 -10q23 -8 74 -8q58 0 88 50t19 105q-22 121 -174 140v36q55 17 85.5 45.5t34.5 58t-6.5 56t-32.5 43.5
q-32 29 -80 19t-73 -62l-35 4q5 43 24 74t43 45.5t47 22.5t38 9l16 1q40 0 76.5 -15.5t60 -44t31.5 -64.5t-9.5 -80.5t-62.5 -88.5q62 -22 96 -66t37 -90z" />
    <glyph glyph-name="o.superior" horiz-adv-x="669" 
d="M299 1444q121 0 182.5 -62.5t61.5 -197.5q0 -141 -60 -197.5t-184 -56.5q-121 0 -181.5 60t-60.5 194q0 141 60 200.5t182 59.5zM299 965q27 0 43.5 5.5t34.5 25t26.5 66.5t8.5 122q0 61 -7 105t-17 66.5t-26.5 35.5t-30 15.5t-32.5 2.5q-20 0 -32.5 -2t-29 -14t-26 -35
t-16.5 -67t-7 -107q0 -61 7 -104t16.5 -65t26 -34t29 -14t32.5 -2z" />
    </font>
</defs>
</svg>
