<?xml version="1.0" standalone="no"?>
<!DOCTYPE svg PUBLIC "-//W3C//DTD SVG 1.1//EN" "http://www.w3.org/Graphics/SVG/1.1/DTD/svg11.dtd" >
<svg xmlns="http://www.w3.org/2000/svg" xmlns:xlink="http://www.w3.org/1999/xlink" version="1.1">
<metadata>
Created by FontForge 20170731 at Tue Dec 10 10:28:40 2019
 By Aleksey,,,
Copyright (c) 2016-2019 by TypeType. Designers Ivan Gladkikh, Pavel Emelyanov. Technical designers Vika Usmanova, Olexa Volochay, Nadyr Rakhimov, Yuri Nakonechny. All rights reserved.
</metadata>
<defs>
<font id="TTNormsPro-Medium" horiz-adv-x="580" >
  <font-face 
    font-family="TT Norms Pro Light"
    font-weight="500"
    font-stretch="normal"
    units-per-em="1000"
    panose-1="2 0 8 3 3 0 0 2 0 3"
    ascent="800"
    descent="-200"
    x-height="480"
    cap-height="700"
    bbox="-545 -225 1438 1080"
    underline-thickness="50"
    underline-position="-150"
    unicode-range="U+000D-FB06"
  />
<missing-glyph horiz-adv-x="900" 
d="M100 284h45v-139h33v139h50v31h-128v126l19 -61h23l34 106l33 -106h23l54 170h-32l-34 -110l-35 110h-19l-35 -110l-31 103v157h700v-150h-110v-170h110v-91q-13 27 -50 27q-29 0 -44.5 -14.5t-15.5 -34.5q0 -22 13.5 -32t30 -15t30.5 -9.5t14 -16.5q0 -14 -9.5 -17.5
t-18.5 -3.5q-15 0 -21.5 7.5t-6.5 17.5h-33q0 -24 16.5 -39.5t44.5 -15.5q20 0 32.5 7.5t17.5 12.5v-163h-700v284zM328 143q38 0 60 25t22 61q0 37 -22.5 62t-59.5 25t-59.5 -25t-22.5 -62q0 -36 22 -61t60 -25zM328 174q-23 0 -37 16t-14 39q0 24 13.5 40t37.5 16
t37.5 -16t13.5 -40q0 -23 -14 -39t-37 -16zM549 315h-32v-106q0 -29 19.5 -47.5t48.5 -18.5t48 18.5t19 47.5v106h-32v-106q0 -15 -9 -25t-26 -10q-18 0 -27 11t-9 24v106zM344 380v62h24l35 -62h37l-40 67q36 16 36 50q0 21 -15.5 37t-41.5 16h-68v-170h33zM344 519h35
q10 0 17 -6t7 -17q0 -13 -8 -18t-16 -5h-35v46zM502 380v170h-33v-170h33zM800 262v-38q-11 10 -24 14.5t-24.5 8.5t-19.5 8t-8 12q0 9 7.5 14.5t18.5 5.5q10 0 18 -6.5t8 -18.5h24zM612 380v139h50v31h-132v-31h50v-139h32zM722 452h78v-41h-78v41zM722 519h78v-36h-78v36z
" />
    <glyph glyph-name="f_f" unicode="ff" horiz-adv-x="650" 
d="M105 385h-75v95h75v50q0 79 39 119.5t111 40.5q17 0 30.5 -2.5t23.5 -5.5q11 -4 21 -7v-95q-7 3 -16 7q-8 3 -18 5.5t-21 2.5q-70 0 -70 -75v-40h200v70q0 79 39 119.5t111 40.5q17 0 30.5 -2.5t23.5 -5.5q11 -4 21 -7v-95q-7 3 -16 7q-8 3 -18 5.5t-21 2.5
q-70 0 -70 -75v-60h115v-95h-115v-385h-100v385h-200v-385h-100v385z" />
    <glyph glyph-name="uniFB01" unicode="fi" 
d="M105 385h-75v95h75v70q0 79 39 119.5t111 40.5q17 0 30.5 -2.5t23.5 -5.5q11 -4 21 -7v-95q-7 3 -16 7q-8 3 -18 5.5t-21 2.5q-70 0 -70 -75v-60h300v-480h-100v385h-200v-385h-100v385zM455 570q-23 0 -41.5 17t-18.5 43t18.5 43t41.5 17t41.5 -17t18.5 -43t-18.5 -43
t-41.5 -17z" />
    <glyph glyph-name="f_f_i" unicode="ffi" horiz-adv-x="880" 
d="M105 385h-75v95h75v50q0 79 39 119.5t111 40.5q17 0 30.5 -2.5t23.5 -5.5q11 -4 21 -7v-95q-7 3 -16 7q-8 3 -18 5.5t-21 2.5q-70 0 -70 -75v-40h200v70q0 79 39 119.5t111 40.5q17 0 30.5 -2.5t23.5 -5.5q11 -4 21 -7v-95q-7 3 -16 7q-8 3 -18 5.5t-21 2.5
q-70 0 -70 -75v-60h300v-480h-100v385h-200v-385h-100v385h-200v-385h-100v385zM755 570q-23 0 -41.5 17t-18.5 43t18.5 43t41.5 17t41.5 -17t18.5 -43t-18.5 -43t-41.5 -17z" />
    <glyph glyph-name=".notdef" horiz-adv-x="900" 
d="M100 284h45v-139h33v139h50v31h-128v126l19 -61h23l34 106l33 -106h23l54 170h-32l-34 -110l-35 110h-19l-35 -110l-31 103v157h700v-150h-110v-170h110v-91q-13 27 -50 27q-29 0 -44.5 -14.5t-15.5 -34.5q0 -22 13.5 -32t30 -15t30.5 -9.5t14 -16.5q0 -14 -9.5 -17.5
t-18.5 -3.5q-15 0 -21.5 7.5t-6.5 17.5h-33q0 -24 16.5 -39.5t44.5 -15.5q20 0 32.5 7.5t17.5 12.5v-163h-700v284zM328 143q38 0 60 25t22 61q0 37 -22.5 62t-59.5 25t-59.5 -25t-22.5 -62q0 -36 22 -61t60 -25zM328 174q-23 0 -37 16t-14 39q0 24 13.5 40t37.5 16
t37.5 -16t13.5 -40q0 -23 -14 -39t-37 -16zM549 315h-32v-106q0 -29 19.5 -47.5t48.5 -18.5t48 18.5t19 47.5v106h-32v-106q0 -15 -9 -25t-26 -10q-18 0 -27 11t-9 24v106zM344 380v62h24l35 -62h37l-40 67q36 16 36 50q0 21 -15.5 37t-41.5 16h-68v-170h33zM344 519h35
q10 0 17 -6t7 -17q0 -13 -8 -18t-16 -5h-35v46zM502 380v170h-33v-170h33zM800 262v-38q-11 10 -24 14.5t-24.5 8.5t-19.5 8t-8 12q0 9 7.5 14.5t18.5 5.5q10 0 18 -6.5t8 -18.5h24zM612 380v139h50v31h-132v-31h50v-139h32zM722 452h78v-41h-78v41zM722 519h78v-36h-78v36z
" />
    <glyph glyph-name=".null" horiz-adv-x="0" 
 />
    <glyph glyph-name=".null" horiz-adv-x="0" 
 />
    <glyph glyph-name="nonmarkingreturn" unicode="&#xd;" horiz-adv-x="0" 
 />
    <glyph glyph-name="space" unicode=" " horiz-adv-x="210" 
 />
    <glyph glyph-name="exclam" unicode="!" horiz-adv-x="310" 
d="M155 -10q-26 0 -45.5 19.5t-19.5 45.5t19.5 45.5t45.5 19.5t45.5 -19.5t19.5 -45.5t-19.5 -45.5t-45.5 -19.5zM95 700h120l-20 -510h-80z" />
    <glyph glyph-name="quotedbl" unicode="&#x22;" horiz-adv-x="380" 
d="M60 700h90v-225h-90v225zM230 700h90v-225h-90v225z" />
    <glyph glyph-name="numbersign" unicode="#" horiz-adv-x="720" 
d="M160 200h-150l15 75h150l30 150h-145l15 75h145l40 200h85l-40 -200h170l40 200h85l-40 -200h150l-15 -75h-150l-30 -150h145l-15 -75h-145l-40 -200h-85l40 200h-170l-40 -200h-85zM430 275l30 150h-170l-30 -150h170z" />
    <glyph glyph-name="dollar" unicode="$" horiz-adv-x="570" 
d="M235 -7q-53 6 -91 23t-64 34q-30 20 -50 45l75 75q16 -22 42 -40q22 -15 55 -27.5t78 -12.5q34 0 60 8.5t44 23t27 33.5t9 40q0 29 -16 47.5t-42 31.5t-59 22t-68 19.5t-68 25t-59 37t-42 55.5t-16 82q0 37 13.5 69.5t38 57.5t58.5 41t75 22v100h100v-97q43 -7 76 -21.5
t55 -29.5q26 -18 44 -37l-75 -75q-16 18 -37 32q-18 12 -45.5 22.5t-62.5 10.5q-64 0 -97 -28.5t-33 -66.5q0 -29 16 -47.5t42 -31.5t59 -22t68 -19.5t68 -25t59 -37t42 -55.5t16 -82q0 -39 -14.5 -73.5t-40 -60.5t-61.5 -43t-79 -23v-100h-100v98z" />
    <glyph glyph-name="percent" unicode="%" horiz-adv-x="790" 
d="M570 700h90l-440 -700h-90zM590 -10q-34 0 -63 12.5t-50.5 33.5t-34 49t-12.5 60t12.5 60t34 49t50.5 33.5t63 12.5t63 -12.5t50.5 -33.5t34 -49t12.5 -60t-12.5 -60t-34 -49t-50.5 -33.5t-63 -12.5zM590 65q34 0 57 23t23 57t-23 57t-57 23t-57 -23t-23 -57t23 -57
t57 -23zM200 400q-34 0 -63 12.5t-50.5 33.5t-34 49t-12.5 60t12.5 60t34 49t50.5 33.5t63 12.5t63 -12.5t50.5 -33.5t34 -49t12.5 -60t-12.5 -60t-34 -49t-50.5 -33.5t-63 -12.5zM200 475q34 0 57 23t23 57t-23 57t-57 23t-57 -23t-23 -57t23 -57t57 -23z" />
    <glyph glyph-name="ampersand" unicode="&#x26;" horiz-adv-x="620" 
d="M255 -15q-47 0 -85 14t-64.5 38.5t-41 57t-14.5 70.5q0 51 20.5 88.5t46.5 62.5q30 29 68 49q-28 28 -50 59q-19 26 -34.5 59t-15.5 67t12.5 63t35.5 50.5t55.5 34t71.5 12.5q37 0 68.5 -12.5t54 -33.5t35 -49t12.5 -60q0 -42 -20 -76t-43 -60q-27 -30 -62 -54l135 -165
q11 18 20 40q8 19 14 44.5t6 55.5h90q0 -45 -10.5 -84.5t-22.5 -68.5q-14 -34 -32 -62q10 -13 22 -23q11 -8 24.5 -15t28.5 -7q5 0 10.5 0.5t10.5 1.5t9 3v-90q-3 -2 -9 -3q-5 -1 -14 -1.5t-22 -0.5q-29 0 -50.5 10.5t-37.5 24.5q-18 15 -32 35q-21 -21 -50 -38
q-25 -14 -60 -25.5t-80 -11.5zM260 75q30 0 53 7.5t39 17.5q18 11 33 25l-145 180q-26 -17 -45 -38q-17 -18 -31 -42.5t-14 -54.5q0 -19 8 -36t22.5 -30t35 -21t44.5 -8zM255 425q22 21 40 42q15 18 27.5 40t12.5 43q0 30 -20.5 50t-54.5 20q-38 0 -59 -20t-21 -50
q0 -21 11.5 -43t25.5 -40q17 -21 38 -42z" />
    <glyph glyph-name="quotesingle" unicode="'" horiz-adv-x="210" 
d="M60 700h90v-225h-90v225z" />
    <glyph glyph-name="parenleft" unicode="(" horiz-adv-x="325" 
d="M234 -225q-49 56 -87 129q-33 62 -60 149.5t-27 196.5t27 196t60 150q38 72 87 129l76 -50q-42 -53 -75 -119q-29 -57 -52 -134.5t-23 -171.5t23 -171.5t52 -134.5q33 -66 75 -119l-76 -50v0z" />
    <glyph glyph-name="parenright" unicode=")" horiz-adv-x="325" 
d="M15 -175q42 53 75 119q28 57 51.5 134.5t23.5 171.5t-23.5 171.5t-51.5 134.5q-33 66 -75 119l76 50q48 -57 87 -129q16 -31 31.5 -68.5t28 -81t20 -93t7.5 -103.5t-7.5 -103.5t-20 -93t-28 -81t-31.5 -68.5q-39 -73 -87 -129z" />
    <glyph glyph-name="asterisk" unicode="*" horiz-adv-x="400" 
d="M70 415l80 100l-120 30l25 75l115 -45l-10 125h80l-10 -125l115 45l25 -75l-120 -30l80 -100l-60 -50l-70 110l-70 -110z" />
    <glyph glyph-name="plus" unicode="+" horiz-adv-x="515" 
d="M215 250h-180v90h180v180h85v-180h180v-90h-180v-180h-85v180z" />
    <glyph glyph-name="comma" unicode="," horiz-adv-x="220" 
d="M-10 -95l100 215l90 -50l-125 -200z" />
    <glyph glyph-name="hyphen" unicode="-" horiz-adv-x="410" 
d="M45 340h320v-90h-320v90z" />
    <glyph glyph-name="period" unicode="." horiz-adv-x="220" 
d="M110 -10q-26 0 -45.5 19.5t-19.5 45.5t19.5 45.5t45.5 19.5t45.5 -19.5t19.5 -45.5t-19.5 -45.5t-45.5 -19.5z" />
    <glyph glyph-name="slash" unicode="/" horiz-adv-x="390" 
d="M300 710h90l-300 -920h-90z" />
    <glyph glyph-name="zero" unicode="0" horiz-adv-x="690" 
d="M345 -10q-60 0 -113 24t-92 70t-62 113t-23 153t23 153t62 113t92 70t113 24t113 -24t92 -70t62 -113t23 -153t-23 -153t-62 -113t-92 -70t-113 -24zM345 90q36 0 68.5 16t57 48.5t39.5 81t15 114.5t-15 114.5t-39.5 81t-57 48.5t-68.5 16t-68.5 -16t-57 -48.5t-39.5 -81
t-15 -114.5t15 -114.5t39.5 -81t57 -48.5t68.5 -16z" />
    <glyph glyph-name="one" unicode="1" horiz-adv-x="370" 
d="M160 535h-125v70q34 4 58 12t41.5 20.5t29.5 28t21 34.5h85v-700h-110v535z" />
    <glyph glyph-name="two" unicode="2" horiz-adv-x="560" 
d="M35 0q0 79 26.5 134.5t66.5 96t87 71t87 59.5t66.5 60t26.5 74q0 49 -32.5 79.5t-92.5 30.5q-40 0 -65.5 -15t-41.5 -33q-18 -21 -28 -47l-90 40q14 45 43 80q25 30 68.5 55t113.5 25q52 0 95.5 -16.5t74.5 -46t48 -68.5t17 -84q0 -51 -19.5 -89t-50.5 -68.5t-70 -56
t-76.5 -52t-70.5 -56t-53 -68.5h340v-105h-470v0z" />
    <glyph glyph-name="three" unicode="3" horiz-adv-x="565" 
d="M265 -10q-63 0 -108 16t-76 36q-36 23 -61 53l75 75q17 -22 42 -40q21 -15 52.5 -27.5t75.5 -12.5q68 0 104 33t36 82q0 45 -36 77.5t-104 32.5h-75v105h75q57 0 86 26.5t29 68.5t-29 68.5t-86 26.5q-36 0 -63.5 -11t-47.5 -24q-23 -16 -39 -35l-75 75q25 26 58 47
q29 18 70.5 33t96.5 15q52 0 94 -15t71 -40t44.5 -59t15.5 -71q0 -44 -16.5 -73.5t-36.5 -47.5q-23 -21 -52 -34q36 -13 65 -36q24 -20 44.5 -52.5t20.5 -81.5q0 -43 -17.5 -81.5t-49.5 -67t-78.5 -45t-104.5 -16.5z" />
    <glyph glyph-name="four" unicode="4" horiz-adv-x="590" 
d="M370 140h-340v120l320 440h130v-460h90v-100h-90v-140h-110v140zM370 240v325l-235 -325h235z" />
    <glyph glyph-name="five" unicode="5" horiz-adv-x="590" 
d="M285 -10q-63 0 -108 16t-76 36q-36 23 -61 53l75 75q17 -22 42 -40q21 -15 52.5 -27.5t75.5 -12.5q68 0 106.5 37.5t38.5 97.5t-38.5 97.5t-106.5 37.5q-32 0 -56 -11t-41 -24q-19 -16 -33 -35l-80 10l25 400h395v-105h-300l-10 -170q14 9 32 17q16 7 37.5 12.5t50.5 5.5
q51 0 94 -17.5t74.5 -49t49 -74.5t17.5 -94t-18 -94t-51.5 -74.5t-80.5 -49t-105 -17.5z" />
    <glyph glyph-name="six" unicode="6" horiz-adv-x="590" 
d="M295 -10q-54 0 -100 18.5t-79.5 50.5t-52 74.5t-18.5 91.5q0 30 7.5 57.5t17.5 49.5q11 26 25 48l205 320h120l-160 -245q4 1 11 2q5 1 14 2t20 1q51 0 94.5 -18.5t76 -50.5t51 -74.5t18.5 -91.5t-18.5 -91.5t-52 -74.5t-79.5 -50.5t-100 -18.5zM295 90q30 0 55.5 10.5
t44.5 29t29.5 43t10.5 52.5t-10.5 52.5t-29.5 43t-44.5 29t-55.5 10.5t-55.5 -10.5t-44.5 -29t-29.5 -43t-10.5 -52.5t10.5 -52.5t29.5 -43t44.5 -29t55.5 -10.5z" />
    <glyph glyph-name="seven" unicode="7" horiz-adv-x="520" 
d="M370 595h-340v105h460v-100l-290 -600h-120z" />
    <glyph glyph-name="eight" unicode="8" horiz-adv-x="600" 
d="M300 -10q-58 0 -104.5 16.5t-78.5 45t-49.5 67t-17.5 81.5q0 49 18.5 82t41.5 54q26 24 60 39q-26 13 -45 34q-17 18 -31 46t-14 70q0 37 15.5 71t44 59t69 40t91.5 15t91.5 -15t69 -40t44 -59t15.5 -71q0 -42 -14 -70t-31 -46q-20 -21 -45 -34q34 -15 60 -39
q23 -21 41.5 -54t18.5 -82q0 -43 -17.5 -81.5t-49.5 -67t-78.5 -45t-104.5 -16.5zM300 90q68 0 104 33t36 82t-36 82t-104 33t-104 -33t-36 -82t36 -82t104 -33zM300 420q53 0 81.5 26.5t28.5 68.5t-28.5 68.5t-81.5 26.5t-81.5 -26.5t-28.5 -68.5t28.5 -68.5t81.5 -26.5z
" />
    <glyph glyph-name="nine" unicode="9" horiz-adv-x="590" 
d="M330 245q-5 -2 -11 -3t-14.5 -1.5t-19.5 -0.5q-51 0 -94.5 18.5t-76 50.5t-51 74.5t-18.5 91.5t18.5 91.5t52 74.5t79.5 50.5t100 18.5t100 -18.5t79.5 -50.5t52 -74.5t18.5 -91.5q0 -30 -8 -58t-17 -50q-11 -26 -25 -47l-205 -320h-120zM295 340q30 0 55.5 10.5t44.5 29
t29.5 43t10.5 52.5t-10.5 52.5t-29.5 43t-44.5 29t-55.5 10.5t-55.5 -10.5t-44.5 -29t-29.5 -43t-10.5 -52.5t10.5 -52.5t29.5 -43t44.5 -29t55.5 -10.5z" />
    <glyph glyph-name="colon" unicode=":" horiz-adv-x="220" 
d="M110 -10q-26 0 -45.5 19.5t-19.5 45.5t19.5 45.5t45.5 19.5t45.5 -19.5t19.5 -45.5t-19.5 -45.5t-45.5 -19.5zM110 360q-26 0 -45.5 19.5t-19.5 45.5t19.5 45.5t45.5 19.5t45.5 -19.5t19.5 -45.5t-19.5 -45.5t-45.5 -19.5z" />
    <glyph glyph-name="semicolon" unicode=";" horiz-adv-x="225" 
d="M-10 -95l100 215l90 -50l-125 -200zM120 360q-26 0 -45.5 19.5t-19.5 45.5t19.5 45.5t45.5 19.5t45.5 -19.5t19.5 -45.5t-19.5 -45.5t-45.5 -19.5z" />
    <glyph glyph-name="less" unicode="&#x3c;" horiz-adv-x="500" 
d="M40 215v60l420 215v-100l-285 -145l285 -145v-100z" />
    <glyph glyph-name="equal" unicode="=" horiz-adv-x="490" 
d="M40 245h410v-90h-410v90zM40 435h410v-90h-410v90z" />
    <glyph glyph-name="greater" unicode="&#x3e;" horiz-adv-x="500" 
d="M40 100l285 145l-285 145v100l420 -215v-60l-420 -215v100z" />
    <glyph glyph-name="question" unicode="?" horiz-adv-x="535" 
d="M250 -10q-26 0 -45.5 19.5t-19.5 45.5t19.5 45.5t45.5 19.5t45.5 -19.5t19.5 -45.5t-19.5 -45.5t-45.5 -19.5zM200 190q-2 6 -3 13q-1 6 -1.5 14t-0.5 18q0 36 14 62.5t35 47t46 37.5t46 35.5t35 40.5t14 52q0 42 -31.5 71t-88.5 29q-44 0 -71.5 -15.5t-44.5 -34.5
q-19 -22 -29 -50l-90 35q14 46 44 82q13 15 30.5 30t41 27t53 19t66.5 7q52 0 94.5 -15.5t72.5 -42t46.5 -61t16.5 -71.5q0 -48 -14.5 -80t-36 -56.5t-47 -43t-47 -39t-36 -45.5t-14.5 -61v-5h-100z" />
    <glyph glyph-name="at" unicode="@" horiz-adv-x="885" 
d="M445 -135q-81 0 -151 30t-122 82t-82 122t-30 151t30 151t82 122t122 82t151 30q84 0 155 -28t122 -77.5t79.5 -116t28.5 -143.5q0 -53 -12.5 -92t-34 -65.5t-50.5 -39.5t-63 -13q-32 0 -55 10.5t-37 24.5q-17 15 -28 35q-11 -20 -29 -35q-15 -14 -38.5 -24.5
t-57.5 -10.5t-64.5 14t-54 39t-37.5 59t-14 73t14 73t37.5 59t54 39t64.5 14q30 0 50.5 -8.5t34.5 -19.5q15 -12 25 -27v50h80v-230q0 -26 16 -43t39 -17q30 0 55 32t25 103q0 62 -22.5 115t-62.5 92t-96.5 61t-123.5 22q-64 0 -119.5 -24t-97 -65.5t-65 -98t-23.5 -122.5
t23.5 -122.5t65 -98t97 -65.5t119.5 -24q47 0 81.5 10t57.5 22q27 14 46 33l45 -55q-24 -25 -57 -43q-29 -16 -72 -29t-101 -13zM435 135q42 0 71 30.5t29 79.5t-29 79.5t-71 30.5t-71 -30.5t-29 -79.5t29 -79.5t71 -30.5z" />
    <glyph glyph-name="A" unicode="A" horiz-adv-x="700" 
d="M290 700h120l280 -700h-115l-70 180h-310l-70 -180h-115zM465 280l-115 290l-115 -290h230z" />
    <glyph glyph-name="B" unicode="B" horiz-adv-x="680" 
d="M100 700h280q47 0 85.5 -15t66.5 -40t43 -59t15 -71q0 -40 -13.5 -66t-29.5 -43q-18 -19 -42 -31q34 -14 60 -38q23 -20 41.5 -52.5t18.5 -79.5q0 -41 -17 -78.5t-47.5 -65.5t-72.5 -44.5t-93 -16.5h-295v700zM395 95q53 0 86.5 33t33.5 82t-33.5 82t-86.5 33h-185v-230
h185zM380 415q45 0 72.5 26.5t27.5 68.5t-27.5 68.5t-72.5 26.5h-170v-190h170z" />
    <glyph glyph-name="C" unicode="C" horiz-adv-x="745" 
d="M425 -10q-79 0 -146.5 28t-117 77t-78 114.5t-28.5 140.5t28.5 140.5t78 114.5t117 77t146.5 28q72 0 125 -21t89 -47q41 -30 71 -67l-70 -70q-21 29 -53 52q-27 20 -67.5 36.5t-94.5 16.5t-101.5 -20t-83 -55.5t-55.5 -83t-20 -101.5t20 -101.5t55.5 -83t83 -55.5
t101.5 -20t95 17t69 38q33 24 56 55l70 -70q-31 -39 -74 -70q-37 -26 -90.5 -48t-125.5 -22z" />
    <glyph glyph-name="D" unicode="D" horiz-adv-x="755" 
d="M100 700h235q77 0 143.5 -28t116 -76t77.5 -111.5t28 -134.5t-28 -134.5t-77.5 -111.5t-116 -76t-143.5 -28h-235v700zM335 100q54 0 101 19.5t81 53t53.5 79t19.5 98.5q0 52 -19.5 98t-53.5 79.5t-81 53t-101 19.5h-125v-500h125z" />
    <glyph glyph-name="E" unicode="E" horiz-adv-x="650" 
d="M100 700h495v-105h-385v-180h305v-105h-305v-205h395v-105h-505v700z" />
    <glyph glyph-name="F" unicode="F" horiz-adv-x="625" 
d="M100 700h490v-105h-380v-200h300v-105h-300v-290h-110v700z" />
    <glyph glyph-name="G" unicode="G" horiz-adv-x="805" 
d="M425 -10q-79 0 -146.5 28t-117 77t-78 114.5t-28.5 140.5t28.5 140.5t78 114.5t117 77t146.5 28q72 0 125 -21t89 -47q41 -30 71 -67l-70 -70q-21 29 -53 52q-27 20 -67.5 36.5t-94.5 16.5t-101.5 -20t-83 -55.5t-55.5 -83t-20 -101.5t20 -101.5t55.5 -83t83 -55.5
t101.5 -20q47 0 82.5 11.5t59.5 25.5q28 17 48 38v105h-145v100h255v-245q-32 -38 -77 -68q-38 -26 -94 -46.5t-129 -20.5z" />
    <glyph glyph-name="H" unicode="H" horiz-adv-x="765" 
d="M100 700h110v-295h345v295h110v-700h-110v305h-345v-305h-110v700z" />
    <glyph glyph-name="I" unicode="I" horiz-adv-x="310" 
d="M100 700h110v-700h-110v700z" />
    <glyph glyph-name="J" unicode="J" horiz-adv-x="500" 
d="M185 -10q-48 0 -82 12.5t-57 27.5q-27 18 -46 40l70 70q12 -14 29 -25q14 -10 35.5 -17.5t50.5 -7.5q53 0 84 32.5t31 92.5v485h110v-485q0 -51 -16 -92.5t-45.5 -71t-71 -45.5t-92.5 -16z" />
    <glyph glyph-name="K" unicode="K" horiz-adv-x="685" 
d="M100 700h110v-340l315 340h140l-270 -290l290 -410h-135l-230 330l-110 -120v-210h-110v700z" />
    <glyph glyph-name="L" unicode="L" horiz-adv-x="570" 
d="M100 700h110v-595h340v-105h-450v700z" />
    <glyph glyph-name="M" unicode="M" horiz-adv-x="930" 
d="M100 700h100l265 -340l265 340h100v-700h-110v515l-255 -325l-255 325v-515h-110v700z" />
    <glyph glyph-name="N" unicode="N" horiz-adv-x="795" 
d="M100 700h100l385 -515v515h110v-700h-100l-385 515v-515h-110v700z" />
    <glyph glyph-name="O" unicode="O" horiz-adv-x="850" 
d="M425 -10q-79 0 -146.5 28t-117 77t-78 114.5t-28.5 140.5t28.5 140.5t78 114.5t117 77t146.5 28t146.5 -28t117 -77t78 -114.5t28.5 -140.5t-28.5 -140.5t-78 -114.5t-117 -77t-146.5 -28zM425 90q54 0 101.5 20t83 55.5t55.5 83t20 101.5t-20 101.5t-55.5 83t-83 55.5
t-101.5 20t-101.5 -20t-83 -55.5t-55.5 -83t-20 -101.5t20 -101.5t55.5 -83t83 -55.5t101.5 -20z" />
    <glyph glyph-name="P" unicode="P" horiz-adv-x="660" 
d="M100 700h280q51 0 94 -17.5t74.5 -48t49 -71.5t17.5 -88t-17.5 -88t-49 -71.5t-74.5 -48t-94 -17.5h-170v-250h-110v700zM380 350q26 0 49 9.5t40 26.5t26.5 40t9.5 49t-9.5 49t-26.5 40t-40 26.5t-49 9.5h-170v-250h170z" />
    <glyph glyph-name="Q" unicode="Q" horiz-adv-x="850" 
d="M765 -155q-72 0 -123.5 23t-85.5 52q-40 33 -66 75q-10 -2 -21 -3q-10 -1 -21.5 -1.5t-22.5 -0.5q-79 0 -146.5 28t-117 77t-78 114.5t-28.5 140.5t28.5 140.5t78 114.5t117 77t146.5 28t146.5 -28t117 -77t78 -114.5t28.5 -140.5q0 -44 -8.5 -81t-22.5 -68t-32 -55.5
t-37 -43.5q-44 -45 -100 -72q16 -26 42 -45q22 -17 55 -31t78 -14q9 0 17.5 0.5t14.5 1.5q7 1 13 3v-95q-6 -2 -14 -3q-7 -1 -16 -1.5t-20 -0.5zM425 90q54 0 101.5 20t83 55.5t55.5 83t20 101.5t-20 101.5t-55.5 83t-83 55.5t-101.5 20t-101.5 -20t-83 -55.5t-55.5 -83
t-20 -101.5t20 -101.5t55.5 -83t83 -55.5t101.5 -20z" />
    <glyph glyph-name="R" unicode="R" horiz-adv-x="690" 
d="M100 700h290q51 0 93 -17t72.5 -46.5t47.5 -69.5t17 -87q0 -59 -21 -97t-46 -61q-30 -27 -67 -42l159 -280h-125l-145 260h-165v-260h-110v700zM390 360q53 0 86.5 33.5t33.5 86.5t-33.5 86.5t-86.5 33.5h-180v-240h180z" />
    <glyph glyph-name="S" unicode="S" horiz-adv-x="570" 
d="M280 -10q-64 0 -111 16t-78 36q-36 23 -61 53l75 75q16 -22 42 -40q22 -15 55 -27.5t78 -12.5q34 0 60 8.5t44 23t27 33.5t9 40q0 29 -16 47.5t-42 31.5t-59 22t-68 19.5t-68 25t-59 37t-42 55.5t-16 82q0 39 16.5 74.5t47.5 62.5t75.5 42.5t100.5 15.5q54 0 95 -14
t69 -31q33 -20 56 -45l-75 -75q-16 18 -37 32q-18 12 -45.5 22.5t-62.5 10.5q-64 0 -97 -28.5t-33 -66.5q0 -29 16 -47.5t42 -31.5t59 -22t68 -19.5t68 -25t59 -37t42 -55.5t16 -82q0 -41 -17.5 -78.5t-49.5 -65.5t-78.5 -44.5t-104.5 -16.5z" />
    <glyph glyph-name="T" unicode="T" horiz-adv-x="570" 
d="M230 595h-210v105h530v-105h-210v-595h-110v595z" />
    <glyph glyph-name="U" unicode="U" horiz-adv-x="770" 
d="M385 -10q-66 0 -120 21.5t-93 60t-60.5 91.5t-21.5 117v420h110v-420q0 -41 14 -76t39 -60.5t59 -39.5t73 -14q37 0 71 15t59 40.5t40 60.5t15 74v420h110v-420q0 -64 -21.5 -117t-60.5 -91.5t-93 -60t-120 -21.5z" />
    <glyph glyph-name="V" unicode="V" horiz-adv-x="690" 
d="M15 700h115l215 -560l215 560h115l-270 -700h-120z" />
    <glyph glyph-name="W" unicode="W" horiz-adv-x="1050" 
d="M20 700h115l170 -525l165 525h110l165 -525l170 525h115l-230 -700h-110l-165 525l-165 -525h-110z" />
    <glyph glyph-name="X" unicode="X" horiz-adv-x="660" 
d="M260 365l-230 335h130l170 -255l170 255h130l-230 -335l250 -365h-130l-190 285l-190 -285h-130z" />
    <glyph glyph-name="Y" unicode="Y" horiz-adv-x="650" 
d="M270 250l-265 450h125l195 -340l195 340h125l-265 -450v-250h-110v250z" />
    <glyph glyph-name="Z" unicode="Z" horiz-adv-x="620" 
d="M45 105l390 490h-375v105h505v-105l-390 -490h400v-105h-530v105z" />
    <glyph glyph-name="bracketleft" unicode="[" horiz-adv-x="335" 
d="M80 710h230v-95h-130v-730h130v-95h-230v920z" />
    <glyph glyph-name="backslash" unicode="\" horiz-adv-x="390" 
d="M0 710h90l300 -920h-90z" />
    <glyph glyph-name="bracketright" unicode="]" horiz-adv-x="335" 
d="M25 -115h130v730h-130v95h230v-920h-230v95z" />
    <glyph glyph-name="asciicircum" unicode="^" horiz-adv-x="410" 
d="M170 700h70l135 -290h-90l-80 180l-80 -180h-90z" />
    <glyph glyph-name="underscore" unicode="_" horiz-adv-x="340" 
d="M-10 -95h360v-90h-360v90z" />
    <glyph glyph-name="grave" unicode="`" horiz-adv-x="240" 
d="M30 700h105l75 -140h-75z" />
    <glyph glyph-name="a" unicode="a" horiz-adv-x="520" 
d="M195 -10q-36 0 -65.5 11.5t-50.5 30.5t-32.5 44.5t-11.5 53.5q0 60 38 99.5t102 50.5l175 30q0 38 -27.5 64t-72.5 26q-29 0 -51.5 -10.5t-39.5 -22.5q-19 -14 -34 -32l-65 65q20 25 48 45q24 17 59 31t83 14q45 0 82 -14t63 -39t40.5 -59t14.5 -73v-305h-100v70
q-15 -22 -38 -40q-20 -15 -49 -27.5t-68 -12.5zM215 75q28 0 52.5 10.5t43 29.5t29 44.5t10.5 55.5v15l-140 -25q-38 -7 -56.5 -24.5t-18.5 -40.5q0 -26 21 -45.5t59 -19.5z" />
    <glyph glyph-name="b" unicode="b" horiz-adv-x="605" 
d="M340 -10q-44 0 -75 12.5t-51 27.5q-24 18 -39 40v-70h-100v700h100v-290q15 22 39 40q20 15 51 27.5t75 12.5q45 0 86 -18.5t71.5 -52t49 -79.5t18.5 -100t-18.5 -100t-49 -79.5t-71.5 -52t-86 -18.5zM320 85q30 0 56.5 11.5t46 32t31 49t11.5 62.5t-11.5 62.5t-31 49
t-46 32t-56.5 11.5t-56.5 -11.5t-46 -32t-31 -49t-11.5 -62.5t11.5 -62.5t31 -49t46 -32t56.5 -11.5z" />
    <glyph glyph-name="c" unicode="c" horiz-adv-x="520" 
d="M290 -10q-53 0 -98.5 19.5t-79 53t-53 79t-19.5 98.5q0 52 19.5 98t53 79.5t79 53t98.5 19.5q51 0 88.5 -15t62.5 -33q29 -21 49 -47l-70 -65q-14 18 -33 32q-17 12 -41 22.5t-56 10.5t-59.5 -11.5t-47.5 -32t-31.5 -49t-11.5 -62.5t11.5 -62.5t31.5 -49t47.5 -32
t59.5 -11.5t57 10.5t42 24.5q20 15 36 35l70 -65q-22 -28 -52 -50q-26 -19 -64 -34.5t-89 -15.5z" />
    <glyph glyph-name="d" unicode="d" horiz-adv-x="605" 
d="M265 -10q-45 0 -86 18.5t-71.5 52t-49 79.5t-18.5 100t18.5 100t49 79.5t71.5 52t86 18.5q43 0 74.5 -12.5t51.5 -27.5q24 -18 39 -40v290h100v-700h-100v70q-15 -22 -39 -40q-20 -15 -51.5 -27.5t-74.5 -12.5zM285 85q30 0 56.5 11.5t46 32t31 49t11.5 62.5t-11.5 62.5
t-31 49t-46 32t-56.5 11.5t-56.5 -11.5t-46 -32t-31 -49t-11.5 -62.5t11.5 -62.5t31 -49t46 -32t56.5 -11.5z" />
    <glyph glyph-name="e" unicode="e" horiz-adv-x="560" 
d="M290 -10q-53 0 -98.5 19.5t-79 53t-53 79t-19.5 98.5q0 52 19.5 98t52.5 79.5t77.5 53t95.5 19.5t94 -17.5t74.5 -49t49 -74.5t17.5 -94q0 -11 -1 -20t-2 -16q-1 -8 -2 -14h-370q4 -24 16.5 -46t32 -38.5t45.5 -26t56 -9.5q32 0 58 10t44 22q21 14 38 33l60 -70
q-20 -26 -50 -45q-26 -17 -64 -31t-91 -14zM415 290q-11 49 -44 79.5t-86 30.5q-57 0 -91 -30.5t-49 -79.5h270z" />
    <glyph glyph-name="f" unicode="f" horiz-adv-x="350" 
d="M105 385h-75v95h75v70q0 79 39 119.5t111 40.5q17 0 30.5 -2.5t23.5 -5.5q11 -4 21 -7v-95q-7 3 -16 7q-8 3 -18 5.5t-21 2.5q-70 0 -70 -75v-60h115v-95h-115v-385h-100v385z" />
    <glyph glyph-name="g" unicode="g" 
d="M260 -210q-51 0 -89 15.5t-64 34.5q-30 22 -52 50l70 65q16 -20 36 -35q17 -14 42 -24.5t57 -10.5q68 0 109 41.5t41 113.5v45q-15 -21 -38 -38q-20 -14 -49 -25.5t-68 -11.5q-43 0 -82 18t-68.5 49.5t-47 75.5t-17.5 97q0 52 17.5 96.5t47 76t68.5 49.5t82 18
q39 0 68 -12t49 -26q23 -17 38 -37v65h100v-440q0 -54 -18.5 -100t-52 -79.5t-79.5 -52t-100 -18.5zM275 105q28 0 52.5 10.5t43 30t29 46t10.5 58.5t-10.5 58.5t-29 46t-43 30t-52.5 10.5t-52.5 -10.5t-43 -30t-29 -46t-10.5 -58.5t10.5 -58.5t29 -46t43 -30t52.5 -10.5z
" />
    <glyph glyph-name="h" unicode="h" horiz-adv-x="585" 
d="M75 700h100v-290q15 22 37 40q19 15 47 27.5t66 12.5q41 0 76 -14.5t60.5 -41.5t39.5 -66t14 -88v-280h-100v280q0 53 -30.5 84t-79.5 31q-28 0 -52 -10t-41 -27.5t-27 -42.5t-10 -55v-260h-100v700z" />
    <glyph glyph-name="i" unicode="i" horiz-adv-x="250" 
d="M75 480h100v-480h-100v480zM125 570q-23 0 -41.5 17t-18.5 43t18.5 43t41.5 17t41.5 -17t18.5 -43t-18.5 -43t-41.5 -17z" />
    <glyph glyph-name="j" unicode="j" horiz-adv-x="250" 
d="M25 -210q-17 0 -30.5 2t-23.5 5q-11 4 -21 8v95q7 -4 16 -8q17 -7 39 -7q70 0 70 75v520h100v-530q0 -79 -39 -119.5t-111 -40.5zM125 570q-23 0 -41.5 17t-18.5 43t18.5 43t41.5 17t41.5 -17t18.5 -43t-18.5 -43t-41.5 -17z" />
    <glyph glyph-name="k" unicode="k" horiz-adv-x="520" 
d="M75 700h100v-440l205 220h125l-185 -195l200 -285h-115l-150 215l-80 -85v-130h-100v700z" />
    <glyph glyph-name="l" unicode="l" horiz-adv-x="250" 
d="M75 700h100v-700h-100v700z" />
    <glyph glyph-name="m" unicode="m" horiz-adv-x="870" 
d="M70 480h100v-70q12 22 32 40q17 15 43.5 27.5t64.5 12.5q39 0 67.5 -12.5t46.5 -27.5q21 -18 36 -40q14 22 37 40q20 15 51.5 27.5t76.5 12.5q36 0 67.5 -14.5t55.5 -41t38 -64.5t14 -85v-285h-100v285q0 53 -29 81.5t-71 28.5q-49 0 -82 -35t-33 -95v-265h-100v285
q0 53 -29 81.5t-71 28.5q-49 0 -82 -35t-33 -95v-265h-100v480z" />
    <glyph glyph-name="n" unicode="n" 
d="M70 480h100v-70q15 22 37 40q19 15 47 27.5t66 12.5q41 0 76 -14.5t60.5 -41.5t39.5 -66t14 -88v-280h-100v280q0 53 -30.5 84t-79.5 31q-28 0 -52 -10t-41 -27.5t-27 -42.5t-10 -55v-260h-100v480z" />
    <glyph glyph-name="o" unicode="o" 
d="M290 -10q-53 0 -98.5 19.5t-79 53t-53 79t-19.5 98.5q0 52 19.5 98t53 79.5t79 53t98.5 19.5q52 0 98 -19.5t79.5 -53t53 -79.5t19.5 -98q0 -53 -19.5 -98.5t-53 -79t-79.5 -53t-98 -19.5zM290 85q32 0 59.5 11.5t47.5 32t31.5 49t11.5 62.5t-11.5 62.5t-31.5 49
t-47.5 32t-59.5 11.5t-59.5 -11.5t-47.5 -32t-31.5 -49t-11.5 -62.5t11.5 -62.5t31.5 -49t47.5 -32t59.5 -11.5z" />
    <glyph glyph-name="p" unicode="p" horiz-adv-x="600" 
d="M70 480h100v-70q15 22 39 40q20 15 51 27.5t75 12.5q45 0 86 -18.5t71.5 -52t49 -79.5t18.5 -100t-18.5 -100t-49 -79.5t-71.5 -52t-86 -18.5q-44 0 -75 12.5t-51 27.5q-24 18 -39 40v-280h-100v690zM315 85q30 0 56.5 11.5t46 32t31 49t11.5 62.5t-11.5 62.5t-31 49
t-46 32t-56.5 11.5t-56.5 -11.5t-46 -32t-31 -49t-11.5 -62.5t11.5 -62.5t31 -49t46 -32t56.5 -11.5z" />
    <glyph glyph-name="q" unicode="q" horiz-adv-x="600" 
d="M430 70q-15 -22 -39 -40q-20 -15 -51.5 -27.5t-74.5 -12.5q-45 0 -86 18.5t-71.5 52t-49 79.5t-18.5 100t18.5 100t49 79.5t71.5 52t86 18.5q43 0 74.5 -12.5t51.5 -27.5q24 -18 39 -40v70h100v-690h-100v280zM285 85q30 0 56.5 11.5t46 32t31 49t11.5 62.5t-11.5 62.5
t-31 49t-46 32t-56.5 11.5t-56.5 -11.5t-46 -32t-31 -49t-11.5 -62.5t11.5 -62.5t31 -49t46 -32t56.5 -11.5z" />
    <glyph glyph-name="r" unicode="r" horiz-adv-x="360" 
d="M70 480h100v-65q16 20 37 37q18 14 45 26t63 12h25v-105q-7 1 -13 2t-12.5 2t-14.5 1q-26 0 -49.5 -10.5t-41.5 -30t-28.5 -46t-10.5 -58.5v-245h-100v480z" />
    <glyph glyph-name="s" unicode="s" horiz-adv-x="435" 
d="M215 -10q-48 0 -83 14t-59 31q-28 19 -48 45l65 65q15 -19 34 -33q17 -12 39.5 -22t51.5 -10q42 0 63.5 18.5t21.5 41.5q0 20 -19 31.5t-47 20.5t-61.5 19t-61.5 26.5t-47 43t-19 69.5q0 28 12 53.5t34.5 44.5t55 30.5t73.5 11.5q43 0 75 -10.5t53 -22.5q25 -14 42 -32
l-65 -65q-12 11 -28 20q-14 8 -33.5 14t-43.5 6q-38 0 -56.5 -15.5t-18.5 -34.5q0 -20 19 -31.5t47 -20.5t61.5 -19t61.5 -26.5t47 -43.5t19 -69q0 -30 -12.5 -57t-36.5 -48t-58.5 -33t-77.5 -12z" />
    <glyph glyph-name="t" unicode="t" horiz-adv-x="395" 
d="M270 -10q-72 0 -111 40.5t-39 119.5v235h-90v95h55q23 0 34 12.5t11 42.5v105h90v-160h110v-95h-110v-225q0 -75 70 -75q11 0 21 2t18 5q9 4 16 8v-95q-10 -4 -21 -8q-10 -3 -23.5 -5t-30.5 -2z" />
    <glyph glyph-name="u" unicode="u" 
d="M260 -10q-41 0 -76 14.5t-60.5 41.5t-39.5 66t-14 88v280h100v-280q0 -53 30.5 -84t79.5 -31q28 0 52 10t41 27.5t27 42.5t10 55v260h100v-480h-100v70q-16 -22 -38 -40q-19 -15 -46.5 -27.5t-65.5 -12.5z" />
    <glyph glyph-name="v" unicode="v" horiz-adv-x="510" 
d="M10 480h110l135 -355l135 355h110l-190 -480h-110z" />
    <glyph glyph-name="w" unicode="w" horiz-adv-x="760" 
d="M10 480h110l110 -325l105 325h90l105 -325l110 325h110l-170 -480h-95l-105 320l-105 -320h-95z" />
    <glyph glyph-name="x" unicode="x" horiz-adv-x="500" 
d="M190 250l-165 230h115l110 -155l110 155h115l-165 -230l180 -250h-115l-125 175l-125 -175h-115z" />
    <glyph glyph-name="y" unicode="y" horiz-adv-x="510" 
d="M115 -210q-17 0 -30.5 2t-23.5 5q-11 4 -21 8v95q7 -4 17 -8q8 -3 18.5 -5t24.5 -2q30 0 51.5 17.5t33.5 47.5l20 50l-195 480h110l135 -355l135 355h110l-210 -535q-30 -76 -72.5 -115.5t-102.5 -39.5z" />
    <glyph glyph-name="z" unicode="z" horiz-adv-x="485" 
d="M40 95l265 290h-255v95h385v-95l-265 -290h275v-95h-405v95z" />
    <glyph glyph-name="braceleft" unicode="{" horiz-adv-x="350" 
d="M265 -210q-72 0 -113.5 41t-41.5 109v200q0 30 -17.5 47.5t-47.5 17.5h-15v90h15q30 0 47.5 17.5t17.5 47.5v200q0 68 41.5 109t113.5 41h60v-95h-50q-30 0 -47.5 -17.5t-17.5 -47.5v-190q0 -36 -11 -57.5t-24 -33.5q-16 -14 -35 -19q19 -5 35 -19q13 -12 24 -34t11 -57
v-190q0 -30 17.5 -47.5t47.5 -17.5h50v-95h-60v0z" />
    <glyph glyph-name="bar" unicode="|" horiz-adv-x="340" 
d="M120 710h100v-920h-100v920z" />
    <glyph glyph-name="braceright" unicode="}" horiz-adv-x="350" 
d="M25 -115h50q30 0 47.5 17.5t17.5 47.5v190q0 35 10.5 57t24.5 34q15 14 35 19q-20 5 -35 19q-14 12 -24.5 33.5t-10.5 57.5v190q0 30 -17.5 47.5t-47.5 17.5h-50v95h60q72 0 113.5 -41t41.5 -109v-200q0 -30 17.5 -47.5t47.5 -17.5h15v-90h-15q-30 0 -47.5 -17.5
t-17.5 -47.5v-200q0 -68 -41.5 -109t-113.5 -41h-60v95z" />
    <glyph glyph-name="asciitilde" unicode="~" horiz-adv-x="545" 
d="M365 220q-32 0 -56.5 11t-45.5 24t-41 24t-42 11q-23 0 -38.5 -9.5t-26.5 -20.5q-12 -13 -20 -30l-60 45q13 26 33 47q17 18 44.5 33t67.5 15q32 0 56.5 -11t45.5 -24t40.5 -24t42.5 -11t38.5 9.5t26.5 20.5q12 13 20 30l60 -45q-13 -27 -33 -48q-17 -18 -45 -32.5
t-67 -14.5z" />
    <glyph glyph-name="nonbreakingspace" unicode="&#xa0;" horiz-adv-x="210" 
 />
    <glyph glyph-name="exclamdown" unicode="&#xa1;" horiz-adv-x="290" 
d="M105 290h80l20 -500h-120zM145 360q-26 0 -45.5 19.5t-19.5 45.5t19.5 45.5t45.5 19.5t45.5 -19.5t19.5 -45.5t-19.5 -45.5t-45.5 -19.5z" />
    <glyph glyph-name="cent" unicode="&#xa2;" horiz-adv-x="520" 
d="M235 -5q-39 9 -74.5 30.5t-62.5 53t-42.5 72t-15.5 89.5t15.5 89.5t42.5 72t62.5 53t74.5 30.5v105h90v-103q39 -5 70 -20t52 -31q25 -19 43 -41l-70 -65q-14 18 -33 32q-17 12 -41 22.5t-56 10.5t-59.5 -11.5t-47.5 -32t-31.5 -49t-11.5 -62.5t11.5 -62.5t31.5 -49
t47.5 -32t59.5 -11.5t57 10.5t42 24.5q20 15 36 35l70 -65q-18 -24 -44 -44q-22 -17 -53 -32.5t-73 -20.5v-103h-90v105z" />
    <glyph glyph-name="sterling" unicode="&#xa3;" horiz-adv-x="545" 
d="M40 100q70 0 70 70v110h-65v90h65v115q0 51 16 92.5t45 71t69.5 45.5t89.5 16q47 0 82.5 -13.5t59.5 -29.5q28 -18 48 -42l-70 -70q-12 15 -30 27q-15 11 -37.5 19.5t-52.5 8.5q-53 0 -86.5 -34t-33.5 -91v-115h195v-90h-195v-110q0 -19 -4 -32.5t-9 -21.5
q-5 -10 -12 -16h340v-100h-485v100z" />
    <glyph glyph-name="currency" unicode="&#xa4;" horiz-adv-x="520" 
d="M50 185l56 57q-8 12 -13 26q-5 12 -9 29t-4 38q0 20 4 37.5t9 29.5q5 14 13 26l-56 57l60 60l56 -57q11 7 26 13q13 5 30 9.5t38 4.5q20 0 37.5 -4.5t30.5 -9.5q15 -6 26 -13l56 57l60 -60l-56 -57q7 -12 13 -26q5 -12 9 -29.5t4 -37.5q0 -21 -4 -38t-9 -29
q-6 -14 -13 -26l56 -57l-60 -60l-56 57q-11 -8 -26 -14q-13 -5 -30.5 -9t-37.5 -4q-21 0 -38 4t-30 9q-15 6 -26 14l-56 -57zM260 230q45 0 75 30t30 75t-30 75t-75 30t-75 -30t-30 -75t30 -75t75 -30z" />
    <glyph glyph-name="yen" unicode="&#xa5;" horiz-adv-x="650" 
d="M270 105h-155v85h155v60h-155v85h105l-215 365h125l195 -340l195 340h125l-215 -365h105v-85h-155v-60h155v-85h-155v-105h-110v105z" />
    <glyph glyph-name="brokenbar" unicode="&#xa6;" horiz-adv-x="340" 
d="M120 170h100v-380h-100v380zM120 710h100v-380h-100v380z" />
    <glyph glyph-name="section" unicode="&#xa7;" horiz-adv-x="530" 
d="M260 -110q-53 0 -91 14t-64 31q-30 19 -50 45l65 65q15 -19 36 -33q18 -12 44 -22t60 -10q49 0 72 20t23 50q0 25 -22.5 41.5t-56.5 30.5t-73.5 29t-73.5 36.5t-56.5 53t-22.5 79.5q0 34 14 59t31 42q19 19 45 34q-17 10 -30 26q-11 13 -20.5 33t-9.5 46q0 30 12.5 57
t36.5 48t58.5 33t77.5 12t76 -11t55 -24q26 -16 44 -35l-65 -65q-14 12 -31 22q-14 8 -34.5 15.5t-44.5 7.5q-45 0 -65 -17t-20 -43q0 -25 22 -41t55.5 -30t72.5 -28t72.5 -35t55.5 -52.5t22 -78.5q0 -34 -14 -59t-31 -42q-20 -20 -45 -34q18 -12 32 -29q12 -14 22.5 -34.5
t10.5 -46.5q0 -32 -13.5 -60.5t-39 -51t-61.5 -35.5t-81 -13zM315 210q18 7 32 18q12 10 22.5 26t10.5 41q0 28 -26 48.5t-57 34.5q-36 16 -82 27q-19 -7 -33 -18q-12 -10 -22 -26.5t-10 -40.5q0 -29 25.5 -49t56.5 -34q36 -16 83 -27z" />
    <glyph glyph-name="dieresis" unicode="&#xa8;" horiz-adv-x="380" 
d="M90 570q-23 0 -41.5 17t-18.5 43t18.5 43t41.5 17t41.5 -17t18.5 -43t-18.5 -43t-41.5 -17zM290 570q-23 0 -41.5 17t-18.5 43t18.5 43t41.5 17t41.5 -17t18.5 -43t-18.5 -43t-41.5 -17z" />
    <glyph glyph-name="copyright" unicode="&#xa9;" horiz-adv-x="860" 
d="M430 -10q-79 0 -146.5 28t-117 77t-78 114.5t-28.5 140.5t28.5 140.5t78 114.5t117 77t146.5 28t146.5 -28t117 -77t78 -114.5t28.5 -140.5t-28.5 -140.5t-78 -114.5t-117 -77t-146.5 -28zM430 60q60 0 113 23t92 62t62 92t23 113t-23 113t-62 92t-92 62t-113 23
t-113 -23t-92 -62t-62 -92t-23 -113t23 -113t62 -92t92 -62t113 -23zM435 160q-41 0 -77 15t-62 40.5t-41 60.5t-15 74t15 74t41 60.5t62 40.5t77 15q39 0 68 -12t49 -26q23 -17 38 -37l-50 -50q-11 15 -26 27q-14 11 -33.5 19.5t-45.5 8.5q-24 0 -46 -9.5t-38.5 -26
t-26 -38.5t-9.5 -46t9.5 -46t26 -38.5t38.5 -26t46 -9.5q26 0 45.5 8t33.5 19q15 12 26 28l50 -50q-15 -21 -38 -38q-20 -14 -49 -25.5t-68 -11.5z" />
    <glyph glyph-name="ordfeminine" unicode="&#xaa;" horiz-adv-x="340" 
d="M135 395q-45 0 -72.5 25.5t-27.5 59.5q0 38 25 62t70 33l100 20q0 23 -17 39t-43 16q-19 0 -33 -6t-23 -14q-11 -9 -19 -20l-45 40q11 17 28 30q14 11 37 20.5t55 9.5q60 0 95 -33.5t35 -86.5v-185h-70v40q-9 -14 -23 -25q-12 -10 -30 -17.5t-42 -7.5zM150 450
q15 0 29.5 7t25.5 18.5t18 27t7 32.5v10l-90 -20q-15 -3 -25 -13.5t-10 -23.5q0 -17 11 -27.5t34 -10.5z" />
    <glyph glyph-name="guillemotleft" unicode="&#xab;" horiz-adv-x="505" 
d="M40 240l120 170h105l-120 -170l120 -170h-105zM240 240l120 170h105l-120 -170l120 -170h-105z" />
    <glyph glyph-name="logicalnot" unicode="&#xac;" horiz-adv-x="470" 
d="M330 310h-290v90h390v-225h-100v135z" />
    <glyph glyph-name="uni00AD" unicode="&#xad;" horiz-adv-x="410" 
d="M45 340h320v-90h-320v90z" />
    <glyph glyph-name="registered" unicode="&#xae;" horiz-adv-x="860" 
d="M430 -10q-79 0 -146.5 28t-117 77t-78 114.5t-28.5 140.5t28.5 140.5t78 114.5t117 77t146.5 28t146.5 -28t117 -77t78 -114.5t28.5 -140.5t-28.5 -140.5t-78 -114.5t-117 -77t-146.5 -28zM430 60q60 0 113 23t92 62t62 92t23 113t-23 113t-62 92t-92 62t-113 23
t-113 -23t-92 -62t-62 -92t-23 -113t23 -113t62 -92t92 -62t113 -23zM300 535h150q28 0 52 -9.5t41 -26t27 -38.5t10 -46q0 -29 -11 -47.5t-24 -30.5q-16 -14 -35 -22l85 -150h-80l-70 130h-70v-130h-75v370zM450 365q26 0 40.5 13.5t14.5 36.5t-14.5 36.5t-40.5 13.5h-75
v-100h75z" />
    <glyph glyph-name="macron" unicode="&#xaf;" horiz-adv-x="360" 
d="M30 700h300v-70h-300v70z" />
    <glyph glyph-name="degree" unicode="&#xb0;" horiz-adv-x="360" 
d="M180 430q-30 0 -56.5 11.5t-46 30.5t-31 44.5t-11.5 53.5t11.5 53.5t31 44.5t46 30.5t56.5 11.5t56.5 -11.5t46 -30.5t31 -44.5t11.5 -53.5t-11.5 -53.5t-31 -44.5t-46 -30.5t-56.5 -11.5zM180 500q30 0 50 20t20 50t-20 50t-50 20t-50 -20t-20 -50t20 -50t50 -20z" />
    <glyph glyph-name="plusminus" unicode="&#xb1;" horiz-adv-x="515" 
d="M35 100h445v-90h-445v90zM215 340h-180v90h180v180h85v-180h180v-90h-180v-180h-85v180z" />
    <glyph glyph-name="uni00B2" unicode="&#xb2;" horiz-adv-x="305" 
d="M30 460q0 37 12.5 64t31.5 47t41 34.5t41 28.5t31.5 28t12.5 33t-13.5 32t-36.5 13q-15 0 -26 -7.5t-19 -15.5q-9 -10 -15 -22l-60 20q6 25 22 45q13 17 36.5 31t61.5 14q57 0 88.5 -30.5t31.5 -79.5q0 -36 -18 -60t-42.5 -42.5t-51 -35t-43.5 -37.5h155v-70h-240v10z
" />
    <glyph glyph-name="uni00B3" unicode="&#xb3;" horiz-adv-x="310" 
d="M140 445q-34 0 -58.5 8t-40.5 19q-18 12 -31 28l45 45q10 -10 22 -18q11 -7 26.5 -12t36.5 -5q34 0 49.5 13t15.5 32t-15.5 32t-49.5 13h-40v65h40q26 0 38 10t12 25q0 40 -50 40q-17 0 -30.5 -5.5t-23.5 -12.5q-11 -8 -21 -17l-45 45q12 15 30 27q15 11 37.5 19.5
t52.5 8.5q57 0 88.5 -29t31.5 -71q0 -19 -6 -32.5t-14 -21.5q-9 -10 -20 -16q15 -7 27 -18q11 -10 19.5 -26.5t8.5 -40.5q0 -21 -9 -40t-26.5 -33.5t-42.5 -23t-57 -8.5z" />
    <glyph glyph-name="acute" unicode="&#xb4;" horiz-adv-x="240" 
d="M105 700h105l-105 -140h-75z" />
    <glyph glyph-name="uni00B5" unicode="&#xb5;" horiz-adv-x="585" 
d="M70 480h100v-280q0 -53 30.5 -84t79.5 -31q53 0 86.5 34t33.5 91v270h100v-355q0 -19 10 -29.5t25 -10.5q10 0 18 2q4 1 7 3v-95q-5 -2 -10 -3t-11 -1.5t-14 -0.5q-36 0 -58 12.5t-35 27.5q-15 18 -22 40q-16 -22 -38 -40q-19 -15 -46.5 -27.5t-65.5 -12.5q-23 0 -40 3.5
t-28 8.5q-13 5 -22 13v-225h-100v690z" />
    <glyph glyph-name="paragraph" unicode="&#xb6;" horiz-adv-x="575" 
d="M210 360q-36 0 -67 13t-54 36t-36 54t-13 67t13 67t36 54t54 36t67 13h275v-800h-90v705h-95v-705h-90v460z" />
    <glyph glyph-name="periodcentered" unicode="&#xb7;" horiz-adv-x="210" 
d="M105 185q-26 0 -45.5 19.5t-19.5 45.5t19.5 45.5t45.5 19.5t45.5 -19.5t19.5 -45.5t-19.5 -45.5t-45.5 -19.5z" />
    <glyph glyph-name="cedilla" unicode="&#xb8;" horiz-adv-x="255" 
d="M125 -215q-23 0 -40.5 5t-29.5 12q-14 8 -25 18l25 45q9 -8 20 -13q9 -5 22 -8.5t28 -3.5q19 0 29.5 9.5t10.5 23.5q0 13 -10 22.5t-25 9.5q-8 0 -13.5 -1.5t-9.5 -3.5q-4 -3 -7 -5l-30 30l45 95h65l-35 -70q22 -2 40 -12q15 -8 27.5 -24t12.5 -44q0 -34 -25.5 -59.5
t-74.5 -25.5z" />
    <glyph glyph-name="uni00B9" unicode="&#xb9;" horiz-adv-x="235" 
d="M105 700h-65v55q34 0 55 15t25 30h55v-350h-70v250z" />
    <glyph glyph-name="ordmasculine" unicode="&#xba;" horiz-adv-x="380" 
d="M190 390q-34 0 -63 12.5t-50.5 34t-34 50.5t-12.5 62q0 34 12.5 63.5t34 51t50.5 34t63 12.5t63 -12.5t50.5 -34t34 -51t12.5 -63.5q0 -33 -12.5 -62t-34 -50.5t-50.5 -34t-63 -12.5zM190 460q38 0 61.5 26t23.5 64t-23.5 64t-61.5 26t-61.5 -26t-23.5 -64t23.5 -64
t61.5 -26z" />
    <glyph glyph-name="guillemotright" unicode="&#xbb;" horiz-adv-x="505" 
d="M160 240l-120 170h105l120 -170l-120 -170h-105zM360 240l-120 170h105l120 -170l-120 -170h-105z" />
    <glyph glyph-name="onequarter" unicode="&#xbc;" horiz-adv-x="685" 
d="M495 700h90l-435 -700h-90zM95 600h-65v55q34 0 55 15t25 30h55v-350h-70v250zM545 70h-165v70l155 210h80v-210h40v-70h-40v-70h-70v70zM545 140v120l-90 -120h90z" />
    <glyph glyph-name="onehalf" unicode="&#xbd;" horiz-adv-x="715" 
d="M495 700h90l-435 -700h-90zM95 600h-65v55q34 0 55 15t25 30h55v-350h-70v250zM435 10q0 37 12.5 64t31.5 47t41 34.5t41 28.5t31.5 28t12.5 33t-13.5 32t-36.5 13q-15 0 -26 -7.5t-19 -15.5q-9 -10 -15 -22l-60 20q6 25 22 45q13 17 36.5 31t61.5 14q57 0 88.5 -30.5
t31.5 -79.5q0 -36 -18 -60t-42.5 -42.5t-51 -35t-43.5 -37.5h155v-70h-240v10z" />
    <glyph glyph-name="threequarters" unicode="&#xbe;" horiz-adv-x="745" 
d="M555 700h90l-435 -700h-90zM150 345q-34 0 -58.5 8t-40.5 19q-18 12 -31 28l45 45q10 -10 22 -18q11 -7 26.5 -12t36.5 -5q34 0 49.5 13t15.5 32t-15.5 32t-49.5 13h-40v65h40q26 0 38 10t12 25q0 40 -50 40q-17 0 -30.5 -5.5t-23.5 -12.5q-11 -8 -21 -17l-45 45
q12 15 30 27q15 11 37.5 19.5t52.5 8.5q57 0 88.5 -29t31.5 -71q0 -19 -6 -32.5t-14 -21.5q-9 -10 -20 -16q15 -7 27 -18q11 -10 19.5 -26.5t8.5 -40.5q0 -21 -9 -40t-26.5 -33.5t-42.5 -23t-57 -8.5zM605 70h-165v70l155 210h80v-210h40v-70h-40v-70h-70v70zM605 140v120
l-90 -120h90z" />
    <glyph glyph-name="questiondown" unicode="&#xbf;" horiz-adv-x="465" 
d="M250 -220q-53 0 -95.5 15.5t-72.5 42t-46 60.5t-16 72q0 47 14.5 79t36 55t47 40.5t47 36.5t36 43.5t14.5 60.5v5h100q1 -6 2 -13q1 -6 2 -14.5t1 -17.5q0 -36 -14 -61.5t-35 -45t-46 -35.5t-46 -33.5t-35 -38.5t-14 -51q0 -42 31.5 -71t88.5 -29q43 0 71 15.5t45 34.5
q19 22 29 50l90 -35q-14 -47 -44 -83q-26 -31 -72 -56.5t-119 -25.5zM265 360q-26 0 -45.5 19.5t-19.5 45.5t19.5 45.5t45.5 19.5t45.5 -19.5t19.5 -45.5t-19.5 -45.5t-45.5 -19.5z" />
    <glyph glyph-name="Agrave" unicode="&#xc0;" horiz-adv-x="700" 
d="M290 700h120l280 -700h-115l-70 180h-310l-70 -180h-115zM465 280l-115 290l-115 -290h230zM200 930h105l75 -140h-75z" />
    <glyph glyph-name="Aacute" unicode="&#xc1;" horiz-adv-x="700" 
d="M290 700h120l280 -700h-115l-70 180h-310l-70 -180h-115zM465 280l-115 290l-115 -290h230zM390 930h105l-105 -140h-75z" />
    <glyph glyph-name="Acircumflex" unicode="&#xc2;" horiz-adv-x="700" 
d="M290 700h120l280 -700h-115l-70 180h-310l-70 -180h-115zM465 280l-115 290l-115 -290h230zM305 930h90l115 -140h-90l-70 85l-70 -85h-90z" />
    <glyph glyph-name="Atilde" unicode="&#xc3;" horiz-adv-x="700" 
d="M290 700h120l280 -700h-115l-70 180h-310l-70 -180h-115zM465 280l-115 290l-115 -290h230zM185 790q0 72 27.5 103.5t72.5 31.5q24 0 42 -9.5t32.5 -20.5t27.5 -20.5t28 -9.5q19 0 29.5 13t10.5 47h65q0 -72 -27.5 -103.5t-72.5 -31.5q-24 0 -42 9.5t-32.5 20.5
t-27.5 20.5t-28 9.5q-19 0 -29.5 -13t-10.5 -47h-65v0z" />
    <glyph glyph-name="Adieresis" unicode="&#xc4;" horiz-adv-x="700" 
d="M290 700h120l280 -700h-115l-70 180h-310l-70 -180h-115zM465 280l-115 290l-115 -290h230zM250 790q-23 0 -41.5 17t-18.5 43t18.5 43t41.5 17t41.5 -17t18.5 -43t-18.5 -43t-41.5 -17zM450 790q-23 0 -41.5 17t-18.5 43t18.5 43t41.5 17t41.5 -17t18.5 -43t-18.5 -43
t-41.5 -17z" />
    <glyph glyph-name="Aring" unicode="&#xc5;" horiz-adv-x="700" 
d="M290 700h120l280 -700h-115l-70 180h-310l-70 -180h-115zM465 280l-115 290l-115 -290h230zM350 770q-23 0 -42 8t-33 21.5t-22 31.5t-8 39t8 39t22 31.5t33 21.5t42 8q22 0 41.5 -8t33.5 -21.5t22 -31.5t8 -39t-8 -39t-22 -31.5t-33.5 -21.5t-41.5 -8zM350 825
q19 0 32 13t13 32t-13 32t-32 13t-32 -13t-13 -32t13 -32t32 -13z" />
    <glyph glyph-name="AE" unicode="&#xc6;" horiz-adv-x="975" 
d="M365 700h555v-105h-345v-180h265v-105h-265v-205h355v-105h-465v190h-265l-105 -190h-120zM465 290v305h-40l-170 -305h210z" />
    <glyph glyph-name="Ccedilla" unicode="&#xc7;" horiz-adv-x="745" 
d="M405 -215q-23 0 -40.5 5t-29.5 12q-14 8 -25 18l25 45q9 -8 20 -13q9 -5 22 -8.5t28 -3.5q19 0 29.5 9.5t10.5 23.5q0 13 -10 22.5t-25 9.5q-8 0 -13.5 -1.5t-9.5 -3.5q-4 -3 -7 -5l-30 30l30 65q-69 11 -128.5 42t-103 78t-68.5 108t-25 132q0 75 28.5 140.5t78 114.5
t117 77t146.5 28q72 0 125 -21t89 -47q41 -30 71 -67l-70 -70q-21 29 -53 52q-27 20 -67.5 36.5t-94.5 16.5t-101.5 -20t-83 -55.5t-55.5 -83t-20 -101.5t20 -101.5t55.5 -83t83 -55.5t101.5 -20t95 17t69 38q33 24 56 55l70 -70q-29 -36 -69 -66q-35 -26 -85 -48t-116 -26
l-20 -40q22 -2 40 -12q15 -8 27.5 -24t12.5 -44q0 -34 -25.5 -59.5t-74.5 -25.5z" />
    <glyph glyph-name="Egrave" unicode="&#xc8;" horiz-adv-x="650" 
d="M100 700h495v-105h-385v-180h305v-105h-305v-205h395v-105h-505v700zM215 930h105l75 -140h-75z" />
    <glyph glyph-name="Eacute" unicode="&#xc9;" horiz-adv-x="650" 
d="M100 700h495v-105h-385v-180h305v-105h-305v-205h395v-105h-505v700zM390 930h105l-105 -140h-75z" />
    <glyph glyph-name="Ecircumflex" unicode="&#xca;" horiz-adv-x="650" 
d="M100 700h495v-105h-385v-180h305v-105h-305v-205h395v-105h-505v700zM310 930h90l115 -140h-90l-70 85l-70 -85h-90z" />
    <glyph glyph-name="Edieresis" unicode="&#xcb;" horiz-adv-x="650" 
d="M100 700h495v-105h-385v-180h305v-105h-305v-205h395v-105h-505v700zM255 790q-23 0 -41.5 17t-18.5 43t18.5 43t41.5 17t41.5 -17t18.5 -43t-18.5 -43t-41.5 -17zM455 790q-23 0 -41.5 17t-18.5 43t18.5 43t41.5 17t41.5 -17t18.5 -43t-18.5 -43t-41.5 -17z" />
    <glyph glyph-name="Igrave" unicode="&#xcc;" horiz-adv-x="310" 
d="M100 700h110v-700h-110v700zM10 930h105l75 -140h-75z" />
    <glyph glyph-name="Iacute" unicode="&#xcd;" horiz-adv-x="310" 
d="M100 700h110v-700h-110v700zM200 930h105l-105 -140h-75z" />
    <glyph glyph-name="Icircumflex" unicode="&#xce;" horiz-adv-x="310" 
d="M100 700h110v-700h-110v700zM110 930h90l115 -140h-90l-70 85l-70 -85h-90z" />
    <glyph glyph-name="Idieresis" unicode="&#xcf;" horiz-adv-x="310" 
d="M100 700h110v-700h-110v700zM55 790q-23 0 -41.5 17t-18.5 43t18.5 43t41.5 17t41.5 -17t18.5 -43t-18.5 -43t-41.5 -17zM255 790q-23 0 -41.5 17t-18.5 43t18.5 43t41.5 17t41.5 -17t18.5 -43t-18.5 -43t-41.5 -17z" />
    <glyph glyph-name="Eth" unicode="&#xd0;" horiz-adv-x="765" 
d="M110 300h-90v100h90v300h235q77 0 143.5 -28t116 -76t77.5 -111.5t28 -134.5t-28 -134.5t-77.5 -111.5t-116 -76t-143.5 -28h-235v300zM345 100q54 0 101 19.5t81 53t53.5 79t19.5 98.5q0 52 -19.5 98t-53.5 79.5t-81 53t-101 19.5h-125v-200h155v-100h-155v-200h125z
" />
    <glyph glyph-name="Ntilde" unicode="&#xd1;" horiz-adv-x="795" 
d="M100 700h100l385 -515v515h110v-700h-100l-385 515v-515h-110v700zM230 790q0 72 27.5 103.5t72.5 31.5q24 0 42 -9.5t32.5 -20.5t27.5 -20.5t28 -9.5q19 0 29.5 13t10.5 47h65q0 -72 -27.5 -103.5t-72.5 -31.5q-24 0 -42 9.5t-32.5 20.5t-27.5 20.5t-28 9.5
q-19 0 -29.5 -13t-10.5 -47h-65v0z" />
    <glyph glyph-name="Ograve" unicode="&#xd2;" horiz-adv-x="850" 
d="M425 -10q-79 0 -146.5 28t-117 77t-78 114.5t-28.5 140.5t28.5 140.5t78 114.5t117 77t146.5 28t146.5 -28t117 -77t78 -114.5t28.5 -140.5t-28.5 -140.5t-78 -114.5t-117 -77t-146.5 -28zM425 90q54 0 101.5 20t83 55.5t55.5 83t20 101.5t-20 101.5t-55.5 83t-83 55.5
t-101.5 20t-101.5 -20t-83 -55.5t-55.5 -83t-20 -101.5t20 -101.5t55.5 -83t83 -55.5t101.5 -20zM284 930h105l75 -140h-75z" />
    <glyph glyph-name="Oacute" unicode="&#xd3;" horiz-adv-x="850" 
d="M425 -10q-79 0 -146.5 28t-117 77t-78 114.5t-28.5 140.5t28.5 140.5t78 114.5t117 77t146.5 28t146.5 -28t117 -77t78 -114.5t28.5 -140.5t-28.5 -140.5t-78 -114.5t-117 -77t-146.5 -28zM425 90q54 0 101.5 20t83 55.5t55.5 83t20 101.5t-20 101.5t-55.5 83t-83 55.5
t-101.5 20t-101.5 -20t-83 -55.5t-55.5 -83t-20 -101.5t20 -101.5t55.5 -83t83 -55.5t101.5 -20zM459 930h105l-105 -140h-75z" />
    <glyph glyph-name="Ocircumflex" unicode="&#xd4;" horiz-adv-x="850" 
d="M425 -10q-79 0 -146.5 28t-117 77t-78 114.5t-28.5 140.5t28.5 140.5t78 114.5t117 77t146.5 28t146.5 -28t117 -77t78 -114.5t28.5 -140.5t-28.5 -140.5t-78 -114.5t-117 -77t-146.5 -28zM425 90q54 0 101.5 20t83 55.5t55.5 83t20 101.5t-20 101.5t-55.5 83t-83 55.5
t-101.5 20t-101.5 -20t-83 -55.5t-55.5 -83t-20 -101.5t20 -101.5t55.5 -83t83 -55.5t101.5 -20zM379 930h90l115 -140h-90l-70 85l-70 -85h-90z" />
    <glyph glyph-name="Otilde" unicode="&#xd5;" horiz-adv-x="850" 
d="M425 -10q-79 0 -146.5 28t-117 77t-78 114.5t-28.5 140.5t28.5 140.5t78 114.5t117 77t146.5 28t146.5 -28t117 -77t78 -114.5t28.5 -140.5t-28.5 -140.5t-78 -114.5t-117 -77t-146.5 -28zM425 90q54 0 101.5 20t83 55.5t55.5 83t20 101.5t-20 101.5t-55.5 83t-83 55.5
t-101.5 20t-101.5 -20t-83 -55.5t-55.5 -83t-20 -101.5t20 -101.5t55.5 -83t83 -55.5t101.5 -20zM257 790q0 72 27.5 103.5t72.5 31.5q24 0 42 -9.5t32.5 -20.5t27.5 -20.5t28 -9.5q19 0 29.5 13t10.5 47h65q0 -72 -27.5 -103.5t-72.5 -31.5q-24 0 -42 9.5t-32.5 20.5
t-27.5 20.5t-28 9.5q-19 0 -29.5 -13t-10.5 -47h-65v0z" />
    <glyph glyph-name="Odieresis" unicode="&#xd6;" horiz-adv-x="850" 
d="M425 -10q-79 0 -146.5 28t-117 77t-78 114.5t-28.5 140.5t28.5 140.5t78 114.5t117 77t146.5 28t146.5 -28t117 -77t78 -114.5t28.5 -140.5t-28.5 -140.5t-78 -114.5t-117 -77t-146.5 -28zM425 90q54 0 101.5 20t83 55.5t55.5 83t20 101.5t-20 101.5t-55.5 83t-83 55.5
t-101.5 20t-101.5 -20t-83 -55.5t-55.5 -83t-20 -101.5t20 -101.5t55.5 -83t83 -55.5t101.5 -20zM325 790q-23 0 -41.5 17t-18.5 43t18.5 43t41.5 17t41.5 -17t18.5 -43t-18.5 -43t-41.5 -17zM525 790q-23 0 -41.5 17t-18.5 43t18.5 43t41.5 17t41.5 -17t18.5 -43t-18.5 -43
t-41.5 -17z" />
    <glyph glyph-name="multiply" unicode="&#xd7;" horiz-adv-x="500" 
d="M55 175l135 135l-135 135l60 60l135 -135l135 135l60 -60l-135 -135l135 -135l-60 -60l-135 135l-135 -135z" />
    <glyph glyph-name="Oslash" unicode="&#xd8;" horiz-adv-x="850" 
d="M40 40l90 90q-21 26 -38 59q-14 29 -25.5 69.5t-11.5 91.5q0 75 28.5 140.5t78 114.5t117 77t146.5 28q51 0 92.5 -11t70.5 -24q34 -16 62 -35l90 90l70 -70l-90 -90q20 -26 37 -59q14 -29 26 -69.5t12 -91.5q0 -75 -28.5 -140.5t-78 -114.5t-117 -77t-146.5 -28
q-51 0 -92.5 10.5t-70.5 24.5q-34 15 -62 35l-90 -90zM575 565q-19 12 -43 22q-20 8 -47.5 15.5t-59.5 7.5q-54 0 -101.5 -20t-83 -55.5t-55.5 -83t-20 -101.5q0 -34 7 -60.5t15 -45.5q10 -22 23 -39zM425 90q54 0 101.5 20t83 55.5t55.5 83t20 101.5q0 34 -7.5 60.5
t-15.5 45.5q-10 22 -22 39l-365 -360q19 -13 43 -23q20 -8 47.5 -15t59.5 -7z" />
    <glyph glyph-name="Ugrave" unicode="&#xd9;" horiz-adv-x="770" 
d="M385 -10q-66 0 -120 21.5t-93 60t-60.5 91.5t-21.5 117v420h110v-420q0 -41 14 -76t39 -60.5t59 -39.5t73 -14q37 0 71 15t59 40.5t40 60.5t15 74v420h110v-420q0 -64 -21.5 -117t-60.5 -91.5t-93 -60t-120 -21.5zM245 930h105l75 -140h-75z" />
    <glyph glyph-name="Uacute" unicode="&#xda;" horiz-adv-x="770" 
d="M385 -10q-66 0 -120 21.5t-93 60t-60.5 91.5t-21.5 117v420h110v-420q0 -41 14 -76t39 -60.5t59 -39.5t73 -14q37 0 71 15t59 40.5t40 60.5t15 74v420h110v-420q0 -64 -21.5 -117t-60.5 -91.5t-93 -60t-120 -21.5zM420 930h105l-105 -140h-75z" />
    <glyph glyph-name="Ucircumflex" unicode="&#xdb;" horiz-adv-x="770" 
d="M385 -10q-66 0 -120 21.5t-93 60t-60.5 91.5t-21.5 117v420h110v-420q0 -41 14 -76t39 -60.5t59 -39.5t73 -14q37 0 71 15t59 40.5t40 60.5t15 74v420h110v-420q0 -64 -21.5 -117t-60.5 -91.5t-93 -60t-120 -21.5zM340 930h90l115 -140h-90l-70 85l-70 -85h-90z" />
    <glyph glyph-name="Udieresis" unicode="&#xdc;" horiz-adv-x="770" 
d="M385 -10q-66 0 -120 21.5t-93 60t-60.5 91.5t-21.5 117v420h110v-420q0 -41 14 -76t39 -60.5t59 -39.5t73 -14q37 0 71 15t59 40.5t40 60.5t15 74v420h110v-420q0 -64 -21.5 -117t-60.5 -91.5t-93 -60t-120 -21.5zM285 790q-23 0 -41.5 17t-18.5 43t18.5 43t41.5 17
t41.5 -17t18.5 -43t-18.5 -43t-41.5 -17zM485 790q-23 0 -41.5 17t-18.5 43t18.5 43t41.5 17t41.5 -17t18.5 -43t-18.5 -43t-41.5 -17z" />
    <glyph glyph-name="Yacute" unicode="&#xdd;" horiz-adv-x="650" 
d="M270 250l-265 450h125l195 -340l195 340h125l-265 -450v-250h-110v250zM360 930h105l-105 -140h-75z" />
    <glyph glyph-name="Thorn" unicode="&#xde;" horiz-adv-x="725" 
d="M100 700h110v-125h230q54 0 98.5 -16.5t76 -46t48.5 -68.5t17 -84t-17 -84t-48.5 -68.5t-76 -46t-98.5 -16.5h-230v-145h-110v700zM440 245q60 0 95 33t35 82t-35 82t-95 33h-230v-230h230z" />
    <glyph glyph-name="germandbls" unicode="&#xdf;" horiz-adv-x="590" 
d="M70 500q0 47 15.5 85.5t43.5 66.5t67.5 43t88.5 15q45 0 83.5 -15.5t66.5 -42t44 -61t16 -71.5q0 -36 -12 -61t-26 -42q-17 -19 -37 -32q35 -15 62 -39q23 -21 43 -54t20 -82q0 -45 -16 -83.5t-45.5 -66.5t-71 -44t-92.5 -16h-50v100h50q28 0 51 8.5t39.5 23.5t25.5 35
t9 43q0 22 -9 42t-25.5 35t-39.5 24t-51 9h-50v100h15q49 0 79.5 29t30.5 71q0 19 -8 36t-22.5 30t-35 21t-44.5 8q-53 0 -84 -31t-31 -84v-500h-100v500z" />
    <glyph glyph-name="agrave" unicode="&#xe0;" horiz-adv-x="520" 
d="M195 -10q-36 0 -65.5 11.5t-50.5 30.5t-32.5 44.5t-11.5 53.5q0 60 38 99.5t102 50.5l175 30q0 38 -27.5 64t-72.5 26q-29 0 -51.5 -10.5t-39.5 -22.5q-19 -14 -34 -32l-65 65q20 25 48 45q24 17 59 31t83 14q45 0 82 -14t63 -39t40.5 -59t14.5 -73v-305h-100v70
q-15 -22 -38 -40q-20 -15 -49 -27.5t-68 -12.5zM215 75q28 0 52.5 10.5t43 29.5t29 44.5t10.5 55.5v15l-140 -25q-38 -7 -56.5 -24.5t-18.5 -40.5q0 -26 21 -45.5t59 -19.5zM120 700h105l75 -140h-75z" />
    <glyph glyph-name="aacute" unicode="&#xe1;" horiz-adv-x="520" 
d="M195 -10q-36 0 -65.5 11.5t-50.5 30.5t-32.5 44.5t-11.5 53.5q0 60 38 99.5t102 50.5l175 30q0 38 -27.5 64t-72.5 26q-29 0 -51.5 -10.5t-39.5 -22.5q-19 -14 -34 -32l-65 65q20 25 48 45q24 17 59 31t83 14q45 0 82 -14t63 -39t40.5 -59t14.5 -73v-305h-100v70
q-15 -22 -38 -40q-20 -15 -49 -27.5t-68 -12.5zM215 75q28 0 52.5 10.5t43 29.5t29 44.5t10.5 55.5v15l-140 -25q-38 -7 -56.5 -24.5t-18.5 -40.5q0 -26 21 -45.5t59 -19.5zM305 700h105l-105 -140h-75z" />
    <glyph glyph-name="acircumflex" unicode="&#xe2;" horiz-adv-x="520" 
d="M195 -10q-36 0 -65.5 11.5t-50.5 30.5t-32.5 44.5t-11.5 53.5q0 60 38 99.5t102 50.5l175 30q0 38 -27.5 64t-72.5 26q-29 0 -51.5 -10.5t-39.5 -22.5q-19 -14 -34 -32l-65 65q20 25 48 45q24 17 59 31t83 14q45 0 82 -14t63 -39t40.5 -59t14.5 -73v-305h-100v70
q-15 -22 -38 -40q-20 -15 -49 -27.5t-68 -12.5zM215 75q28 0 52.5 10.5t43 29.5t29 44.5t10.5 55.5v15l-140 -25q-38 -7 -56.5 -24.5t-18.5 -40.5q0 -26 21 -45.5t59 -19.5zM220 700h90l115 -140h-90l-70 85l-70 -85h-90z" />
    <glyph glyph-name="atilde" unicode="&#xe3;" horiz-adv-x="520" 
d="M195 -10q-36 0 -65.5 11.5t-50.5 30.5t-32.5 44.5t-11.5 53.5q0 60 38 99.5t102 50.5l175 30q0 38 -27.5 64t-72.5 26q-29 0 -51.5 -10.5t-39.5 -22.5q-19 -14 -34 -32l-65 65q20 25 48 45q24 17 59 31t83 14q45 0 82 -14t63 -39t40.5 -59t14.5 -73v-305h-100v70
q-15 -22 -38 -40q-20 -15 -49 -27.5t-68 -12.5zM215 75q28 0 52.5 10.5t43 29.5t29 44.5t10.5 55.5v15l-140 -25q-38 -7 -56.5 -24.5t-18.5 -40.5q0 -26 21 -45.5t59 -19.5zM100 565q0 72 27.5 103.5t72.5 31.5q24 0 42 -9.5t32.5 -20.5t27.5 -20.5t28 -9.5q19 0 29.5 13
t10.5 47h65q0 -72 -27.5 -103.5t-72.5 -31.5q-24 0 -42 9.5t-32.5 20.5t-27.5 20.5t-28 9.5q-19 0 -29.5 -13t-10.5 -47h-65v0z" />
    <glyph glyph-name="adieresis" unicode="&#xe4;" horiz-adv-x="520" 
d="M195 -10q-36 0 -65.5 11.5t-50.5 30.5t-32.5 44.5t-11.5 53.5q0 60 38 99.5t102 50.5l175 30q0 38 -27.5 64t-72.5 26q-29 0 -51.5 -10.5t-39.5 -22.5q-19 -14 -34 -32l-65 65q20 25 48 45q24 17 59 31t83 14q45 0 82 -14t63 -39t40.5 -59t14.5 -73v-305h-100v70
q-15 -22 -38 -40q-20 -15 -49 -27.5t-68 -12.5zM215 75q28 0 52.5 10.5t43 29.5t29 44.5t10.5 55.5v15l-140 -25q-38 -7 -56.5 -24.5t-18.5 -40.5q0 -26 21 -45.5t59 -19.5zM165 570q-23 0 -41.5 17t-18.5 43t18.5 43t41.5 17t41.5 -17t18.5 -43t-18.5 -43t-41.5 -17z
M365 570q-23 0 -41.5 17t-18.5 43t18.5 43t41.5 17t41.5 -17t18.5 -43t-18.5 -43t-41.5 -17z" />
    <glyph glyph-name="aring" unicode="&#xe5;" horiz-adv-x="520" 
d="M195 -10q-36 0 -65.5 11.5t-50.5 30.5t-32.5 44.5t-11.5 53.5q0 60 38 99.5t102 50.5l175 30q0 38 -27.5 64t-72.5 26q-29 0 -51.5 -10.5t-39.5 -22.5q-19 -14 -34 -32l-65 65q20 25 48 45q24 17 59 31t83 14q45 0 82 -14t63 -39t40.5 -59t14.5 -73v-305h-100v70
q-15 -22 -38 -40q-20 -15 -49 -27.5t-68 -12.5zM215 75q28 0 52.5 10.5t43 29.5t29 44.5t10.5 55.5v15l-140 -25q-38 -7 -56.5 -24.5t-18.5 -40.5q0 -26 21 -45.5t59 -19.5zM265 540q-23 0 -42 8t-33 21.5t-22 31.5t-8 39t8 39t22 31.5t33 21.5t42 8q22 0 41.5 -8
t33.5 -21.5t22 -31.5t8 -39t-8 -39t-22 -31.5t-33.5 -21.5t-41.5 -8zM265 595q19 0 32 13t13 32t-13 32t-32 13t-32 -13t-13 -32t13 -32t32 -13z" />
    <glyph glyph-name="ae" unicode="&#xe6;" horiz-adv-x="860" 
d="M215 -10q-43 0 -76.5 11.5t-56.5 31.5t-35 47.5t-12 59.5q0 30 13 57t39.5 48t65.5 33t92 12h105q0 53 -27.5 81.5t-72.5 28.5q-29 0 -51.5 -10.5t-39.5 -22.5q-19 -14 -34 -32l-65 65q20 25 48 45q24 17 59 31t83 14q42 0 71.5 -13.5t49.5 -29.5q23 -18 39 -42
q19 24 45 42q23 16 56.5 29.5t78.5 13.5q49 0 91 -17.5t73 -49t48.5 -74.5t17.5 -94q0 -11 -1 -20t-2 -16q-1 -8 -2 -14h-360q4 -24 16.5 -46t31.5 -38.5t44 -26t53 -9.5q30 0 54.5 10t42.5 22q21 14 38 33l60 -70q-20 -26 -49 -45q-25 -17 -62.5 -31t-88.5 -14
q-49 0 -85.5 16t-60.5 36q-29 23 -49 53q-19 -30 -46 -53q-23 -20 -57.5 -36t-81.5 -16zM215 75q28 0 52.5 10.5t43 29t29 43t10.5 52.5h-105q-60 0 -85 -20t-25 -50q0 -26 21 -45.5t59 -19.5zM715 290q-11 49 -43.5 79.5t-81.5 30.5q-53 0 -86.5 -30.5t-48.5 -79.5h260z
" />
    <glyph glyph-name="ccedilla" unicode="&#xe7;" horiz-adv-x="520" 
d="M275 -215q-23 0 -40.5 5t-29.5 12q-14 8 -25 18l25 45q9 -8 20 -13q9 -5 22 -8.5t28 -3.5q19 0 29.5 9.5t10.5 23.5q0 13 -10 22.5t-25 9.5q-8 0 -13.5 -1.5t-9.5 -3.5q-4 -3 -7 -5l-30 30l30 65q-43 7 -81.5 28.5t-67 53.5t-45 74.5t-16.5 93.5q0 52 19.5 98t53 79.5
t79 53t98.5 19.5q51 0 88.5 -15t62.5 -33q29 -21 49 -47l-70 -65q-14 18 -33 32q-17 12 -41 22.5t-56 10.5t-59.5 -11.5t-47.5 -32t-31.5 -49t-11.5 -62.5t11.5 -62.5t31.5 -49t47.5 -32t59.5 -11.5t57 10.5t42 24.5q20 15 36 35l70 -65q-20 -25 -47 -46q-23 -18 -56.5 -34
t-76.5 -20l-20 -40q22 -2 40 -12q15 -8 27.5 -24t12.5 -44q0 -34 -25.5 -59.5t-74.5 -25.5z" />
    <glyph glyph-name="egrave" unicode="&#xe8;" horiz-adv-x="560" 
d="M290 -10q-53 0 -98.5 19.5t-79 53t-53 79t-19.5 98.5q0 52 19.5 98t52.5 79.5t77.5 53t95.5 19.5t94 -17.5t74.5 -49t49 -74.5t17.5 -94q0 -11 -1 -20t-2 -16q-1 -8 -2 -14h-370q4 -24 16.5 -46t32 -38.5t45.5 -26t56 -9.5q32 0 58 10t44 22q21 14 38 33l60 -70
q-20 -26 -50 -45q-26 -17 -64 -31t-91 -14zM415 290q-11 49 -44 79.5t-86 30.5q-57 0 -91 -30.5t-49 -79.5h270zM140 700h105l75 -140h-75z" />
    <glyph glyph-name="eacute" unicode="&#xe9;" horiz-adv-x="560" 
d="M290 -10q-53 0 -98.5 19.5t-79 53t-53 79t-19.5 98.5q0 52 19.5 98t52.5 79.5t77.5 53t95.5 19.5t94 -17.5t74.5 -49t49 -74.5t17.5 -94q0 -11 -1 -20t-2 -16q-1 -8 -2 -14h-370q4 -24 16.5 -46t32 -38.5t45.5 -26t56 -9.5q32 0 58 10t44 22q21 14 38 33l60 -70
q-20 -26 -50 -45q-26 -17 -64 -31t-91 -14zM415 290q-11 49 -44 79.5t-86 30.5q-57 0 -91 -30.5t-49 -79.5h270zM315 700h105l-105 -140h-75z" />
    <glyph glyph-name="ecircumflex" unicode="&#xea;" horiz-adv-x="560" 
d="M290 -10q-53 0 -98.5 19.5t-79 53t-53 79t-19.5 98.5q0 52 19.5 98t52.5 79.5t77.5 53t95.5 19.5t94 -17.5t74.5 -49t49 -74.5t17.5 -94q0 -11 -1 -20t-2 -16q-1 -8 -2 -14h-370q4 -24 16.5 -46t32 -38.5t45.5 -26t56 -9.5q32 0 58 10t44 22q21 14 38 33l60 -70
q-20 -26 -50 -45q-26 -17 -64 -31t-91 -14zM415 290q-11 49 -44 79.5t-86 30.5q-57 0 -91 -30.5t-49 -79.5h270zM240 700h90l115 -140h-90l-70 85l-70 -85h-90z" />
    <glyph glyph-name="edieresis" unicode="&#xeb;" horiz-adv-x="560" 
d="M290 -10q-53 0 -98.5 19.5t-79 53t-53 79t-19.5 98.5q0 52 19.5 98t52.5 79.5t77.5 53t95.5 19.5t94 -17.5t74.5 -49t49 -74.5t17.5 -94q0 -11 -1 -20t-2 -16q-1 -8 -2 -14h-370q4 -24 16.5 -46t32 -38.5t45.5 -26t56 -9.5q32 0 58 10t44 22q21 14 38 33l60 -70
q-20 -26 -50 -45q-26 -17 -64 -31t-91 -14zM415 290q-11 49 -44 79.5t-86 30.5q-57 0 -91 -30.5t-49 -79.5h270zM185 570q-23 0 -41.5 17t-18.5 43t18.5 43t41.5 17t41.5 -17t18.5 -43t-18.5 -43t-41.5 -17zM385 570q-23 0 -41.5 17t-18.5 43t18.5 43t41.5 17t41.5 -17
t18.5 -43t-18.5 -43t-41.5 -17z" />
    <glyph glyph-name="igrave" unicode="&#xec;" horiz-adv-x="250" 
d="M75 480h100v-480h-100v480zM-20 700h105l75 -140h-75z" />
    <glyph glyph-name="iacute" unicode="&#xed;" horiz-adv-x="250" 
d="M75 480h100v-480h-100v480zM165 700h105l-105 -140h-75z" />
    <glyph glyph-name="icircumflex" unicode="&#xee;" horiz-adv-x="250" 
d="M75 480h100v-480h-100v480zM80 700h90l115 -140h-90l-70 85l-70 -85h-90z" />
    <glyph glyph-name="idieresis" unicode="&#xef;" horiz-adv-x="250" 
d="M75 480h100v-480h-100v480zM25 570q-23 0 -41.5 17t-18.5 43t18.5 43t41.5 17t41.5 -17t18.5 -43t-18.5 -43t-41.5 -17zM225 570q-23 0 -41.5 17t-18.5 43t18.5 43t41.5 17t41.5 -17t18.5 -43t-18.5 -43t-41.5 -17z" />
    <glyph glyph-name="eth" unicode="&#xf0;" horiz-adv-x="590" 
d="M290 -10q-53 0 -98.5 19t-79 52t-53 76.5t-19.5 92.5t19 92.5t52 76.5t76.5 52t92.5 19q34 0 57.5 -5.5t38.5 -12.5q18 -8 29 -17h5q-11 35 -31 66.5t-40 54.5q-23 27 -49 50l-110 -56l-50 50l110 55q-15 15 -32 29q-14 12 -33.5 26t-39.5 25l90 40q20 -14 37.5 -27
t30.5 -24q15 -12 27 -24l100 50l50 -50l-100 -50q47 -45 85 -106q16 -26 31 -57.5t27 -68.5t19.5 -79t7.5 -89q0 -56 -19.5 -104t-53 -82.5t-79.5 -54t-98 -19.5zM290 85q32 0 59.5 11.5t47.5 31t31.5 46t11.5 56.5t-11.5 56.5t-31.5 46t-47.5 31t-59.5 11.5t-59.5 -11.5
t-47.5 -31t-31.5 -46t-11.5 -56.5t11.5 -56.5t31.5 -46t47.5 -31t59.5 -11.5z" />
    <glyph glyph-name="ntilde" unicode="&#xf1;" 
d="M70 480h100v-70q15 22 37 40q19 15 47 27.5t66 12.5q41 0 76 -14.5t60.5 -41.5t39.5 -66t14 -88v-280h-100v280q0 53 -30.5 84t-79.5 31q-28 0 -52 -10t-41 -27.5t-27 -42.5t-10 -55v-260h-100v480zM130 565q0 72 27.5 103.5t72.5 31.5q24 0 42 -9.5t32.5 -20.5
t27.5 -20.5t28 -9.5q19 0 29.5 13t10.5 47h65q0 -72 -27.5 -103.5t-72.5 -31.5q-24 0 -42 9.5t-32.5 20.5t-27.5 20.5t-28 9.5q-19 0 -29.5 -13t-10.5 -47h-65v0z" />
    <glyph glyph-name="ograve" unicode="&#xf2;" 
d="M290 -10q-53 0 -98.5 19.5t-79 53t-53 79t-19.5 98.5q0 52 19.5 98t53 79.5t79 53t98.5 19.5q52 0 98 -19.5t79.5 -53t53 -79.5t19.5 -98q0 -53 -19.5 -98.5t-53 -79t-79.5 -53t-98 -19.5zM290 85q32 0 59.5 11.5t47.5 32t31.5 49t11.5 62.5t-11.5 62.5t-31.5 49
t-47.5 32t-59.5 11.5t-59.5 -11.5t-47.5 -32t-31.5 -49t-11.5 -62.5t11.5 -62.5t31.5 -49t47.5 -32t59.5 -11.5zM150 700h105l75 -140h-75z" />
    <glyph glyph-name="oacute" unicode="&#xf3;" 
d="M290 -10q-53 0 -98.5 19.5t-79 53t-53 79t-19.5 98.5q0 52 19.5 98t53 79.5t79 53t98.5 19.5q52 0 98 -19.5t79.5 -53t53 -79.5t19.5 -98q0 -53 -19.5 -98.5t-53 -79t-79.5 -53t-98 -19.5zM290 85q32 0 59.5 11.5t47.5 32t31.5 49t11.5 62.5t-11.5 62.5t-31.5 49
t-47.5 32t-59.5 11.5t-59.5 -11.5t-47.5 -32t-31.5 -49t-11.5 -62.5t11.5 -62.5t31.5 -49t47.5 -32t59.5 -11.5zM325 700h105l-105 -140h-75z" />
    <glyph glyph-name="ocircumflex" unicode="&#xf4;" 
d="M290 -10q-53 0 -98.5 19.5t-79 53t-53 79t-19.5 98.5q0 52 19.5 98t53 79.5t79 53t98.5 19.5q52 0 98 -19.5t79.5 -53t53 -79.5t19.5 -98q0 -53 -19.5 -98.5t-53 -79t-79.5 -53t-98 -19.5zM290 85q32 0 59.5 11.5t47.5 32t31.5 49t11.5 62.5t-11.5 62.5t-31.5 49
t-47.5 32t-59.5 11.5t-59.5 -11.5t-47.5 -32t-31.5 -49t-11.5 -62.5t11.5 -62.5t31.5 -49t47.5 -32t59.5 -11.5zM245 700h90l115 -140h-90l-70 85l-70 -85h-90z" />
    <glyph glyph-name="otilde" unicode="&#xf5;" 
d="M290 -10q-53 0 -98.5 19.5t-79 53t-53 79t-19.5 98.5q0 52 19.5 98t53 79.5t79 53t98.5 19.5q52 0 98 -19.5t79.5 -53t53 -79.5t19.5 -98q0 -53 -19.5 -98.5t-53 -79t-79.5 -53t-98 -19.5zM290 85q32 0 59.5 11.5t47.5 32t31.5 49t11.5 62.5t-11.5 62.5t-31.5 49
t-47.5 32t-59.5 11.5t-59.5 -11.5t-47.5 -32t-31.5 -49t-11.5 -62.5t11.5 -62.5t31.5 -49t47.5 -32t59.5 -11.5zM125 565q0 72 27.5 103.5t72.5 31.5q24 0 42 -9.5t32.5 -20.5t27.5 -20.5t28 -9.5q19 0 29.5 13t10.5 47h65q0 -72 -27.5 -103.5t-72.5 -31.5q-24 0 -42 9.5
t-32.5 20.5t-27.5 20.5t-28 9.5q-19 0 -29.5 -13t-10.5 -47h-65v0z" />
    <glyph glyph-name="odieresis" unicode="&#xf6;" 
d="M290 -10q-53 0 -98.5 19.5t-79 53t-53 79t-19.5 98.5q0 52 19.5 98t53 79.5t79 53t98.5 19.5q52 0 98 -19.5t79.5 -53t53 -79.5t19.5 -98q0 -53 -19.5 -98.5t-53 -79t-79.5 -53t-98 -19.5zM290 85q32 0 59.5 11.5t47.5 32t31.5 49t11.5 62.5t-11.5 62.5t-31.5 49
t-47.5 32t-59.5 11.5t-59.5 -11.5t-47.5 -32t-31.5 -49t-11.5 -62.5t11.5 -62.5t31.5 -49t47.5 -32t59.5 -11.5zM190 570q-23 0 -41.5 17t-18.5 43t18.5 43t41.5 17t41.5 -17t18.5 -43t-18.5 -43t-41.5 -17zM390 570q-23 0 -41.5 17t-18.5 43t18.5 43t41.5 17t41.5 -17
t18.5 -43t-18.5 -43t-41.5 -17z" />
    <glyph glyph-name="divide" unicode="&#xf7;" horiz-adv-x="510" 
d="M255 45q-26 0 -45.5 19.5t-19.5 45.5t19.5 45.5t45.5 19.5t45.5 -19.5t19.5 -45.5t-19.5 -45.5t-45.5 -19.5zM35 340h440v-90h-440v90zM255 415q-26 0 -45.5 19.5t-19.5 45.5t19.5 45.5t45.5 19.5t45.5 -19.5t19.5 -45.5t-19.5 -45.5t-45.5 -19.5z" />
    <glyph glyph-name="oslash" unicode="&#xf8;" 
d="M30 25l60 65q-14 18 -25 41q-10 20 -17.5 47.5t-7.5 61.5q0 52 19.5 98t53 79.5t79 53t98.5 19.5q32 0 58 -7.5t44 -15.5q21 -10 38 -22l60 65l60 -55l-60 -65q14 -18 25 -41q9 -20 17 -47.5t8 -61.5q0 -53 -19.5 -98.5t-53 -79t-79.5 -53t-98 -19.5q-32 0 -58 7t-44 15
q-21 10 -38 23l-60 -65zM365 375q-10 6 -21 10q-10 4 -23.5 7t-30.5 3q-30 0 -57.5 -11t-48 -31t-32.5 -48.5t-12 -64.5q0 -19 3 -33t7 -23q4 -11 10 -19zM290 85q30 0 57.5 11t48 31t32.5 48.5t12 64.5q0 19 -3 32.5t-7 23.5q-4 11 -10 19l-205 -210q10 -6 21 -10
q10 -4 23.5 -7t30.5 -3z" />
    <glyph glyph-name="ugrave" unicode="&#xf9;" 
d="M260 -10q-41 0 -76 14.5t-60.5 41.5t-39.5 66t-14 88v280h100v-280q0 -53 30.5 -84t79.5 -31q28 0 52 10t41 27.5t27 42.5t10 55v260h100v-480h-100v70q-16 -22 -38 -40q-19 -15 -46.5 -27.5t-65.5 -12.5zM145 700h105l75 -140h-75z" />
    <glyph glyph-name="uacute" unicode="&#xfa;" 
d="M260 -10q-41 0 -76 14.5t-60.5 41.5t-39.5 66t-14 88v280h100v-280q0 -53 30.5 -84t79.5 -31q28 0 52 10t41 27.5t27 42.5t10 55v260h100v-480h-100v70q-16 -22 -38 -40q-19 -15 -46.5 -27.5t-65.5 -12.5zM330 700h105l-105 -140h-75z" />
    <glyph glyph-name="ucircumflex" unicode="&#xfb;" 
d="M260 -10q-41 0 -76 14.5t-60.5 41.5t-39.5 66t-14 88v280h100v-280q0 -53 30.5 -84t79.5 -31q28 0 52 10t41 27.5t27 42.5t10 55v260h100v-480h-100v70q-16 -22 -38 -40q-19 -15 -46.5 -27.5t-65.5 -12.5zM245 700h90l115 -140h-90l-70 85l-70 -85h-90z" />
    <glyph glyph-name="udieresis" unicode="&#xfc;" 
d="M260 -10q-41 0 -76 14.5t-60.5 41.5t-39.5 66t-14 88v280h100v-280q0 -53 30.5 -84t79.5 -31q28 0 52 10t41 27.5t27 42.5t10 55v260h100v-480h-100v70q-16 -22 -38 -40q-19 -15 -46.5 -27.5t-65.5 -12.5zM190 570q-23 0 -41.5 17t-18.5 43t18.5 43t41.5 17t41.5 -17
t18.5 -43t-18.5 -43t-41.5 -17zM390 570q-23 0 -41.5 17t-18.5 43t18.5 43t41.5 17t41.5 -17t18.5 -43t-18.5 -43t-41.5 -17z" />
    <glyph glyph-name="yacute" unicode="&#xfd;" horiz-adv-x="510" 
d="M115 -210q-17 0 -30.5 2t-23.5 5q-11 4 -21 8v95q7 -4 17 -8q8 -3 18.5 -5t24.5 -2q30 0 51.5 17.5t33.5 47.5l20 50l-195 480h110l135 -355l135 355h110l-210 -535q-30 -76 -72.5 -115.5t-102.5 -39.5zM290 700h105l-105 -140h-75z" />
    <glyph glyph-name="thorn" unicode="&#xfe;" horiz-adv-x="605" 
d="M75 700h100v-290q15 22 39 40q20 15 51 27.5t75 12.5q45 0 86 -18.5t71.5 -52t49 -79.5t18.5 -100t-18.5 -100t-49 -79.5t-71.5 -52t-86 -18.5q-44 0 -75 12.5t-51 27.5q-24 18 -39 40v-280h-100v910zM320 85q30 0 56.5 11.5t46 32t31 49t11.5 62.5t-11.5 62.5t-31 49
t-46 32t-56.5 11.5t-56.5 -11.5t-46 -32t-31 -49t-11.5 -62.5t11.5 -62.5t31 -49t46 -32t56.5 -11.5z" />
    <glyph glyph-name="ydieresis" unicode="&#xff;" horiz-adv-x="510" 
d="M115 -210q-17 0 -30.5 2t-23.5 5q-11 4 -21 8v95q7 -4 17 -8q8 -3 18.5 -5t24.5 -2q30 0 51.5 17.5t33.5 47.5l20 50l-195 480h110l135 -355l135 355h110l-210 -535q-30 -76 -72.5 -115.5t-102.5 -39.5zM155 570q-23 0 -41.5 17t-18.5 43t18.5 43t41.5 17t41.5 -17
t18.5 -43t-18.5 -43t-41.5 -17zM355 570q-23 0 -41.5 17t-18.5 43t18.5 43t41.5 17t41.5 -17t18.5 -43t-18.5 -43t-41.5 -17z" />
    <glyph glyph-name="Amacron" unicode="&#x100;" horiz-adv-x="700" 
d="M290 700h120l280 -700h-115l-70 180h-310l-70 -180h-115zM465 280l-115 290l-115 -290h230zM200 895h300v-70h-300v70z" />
    <glyph glyph-name="amacron" unicode="&#x101;" horiz-adv-x="520" 
d="M195 -10q-36 0 -65.5 11.5t-50.5 30.5t-32.5 44.5t-11.5 53.5q0 60 38 99.5t102 50.5l175 30q0 38 -27.5 64t-72.5 26q-29 0 -51.5 -10.5t-39.5 -22.5q-19 -14 -34 -32l-65 65q20 25 48 45q24 17 59 31t83 14q45 0 82 -14t63 -39t40.5 -59t14.5 -73v-305h-100v70
q-15 -22 -38 -40q-20 -15 -49 -27.5t-68 -12.5zM215 75q28 0 52.5 10.5t43 29.5t29 44.5t10.5 55.5v15l-140 -25q-38 -7 -56.5 -24.5t-18.5 -40.5q0 -26 21 -45.5t59 -19.5zM115 675h300v-70h-300v70z" />
    <glyph glyph-name="Abreve" unicode="&#x102;" horiz-adv-x="700" 
d="M290 700h120l280 -700h-115l-70 180h-310l-70 -180h-115zM465 280l-115 290l-115 -290h230zM350 790q-32 0 -58.5 10.5t-46 29.5t-30 44.5t-10.5 55.5h75q0 -30 20 -50t50 -20t50 20t20 50h75q0 -30 -10.5 -55.5t-30 -44.5t-46 -29.5t-58.5 -10.5z" />
    <glyph glyph-name="abreve" unicode="&#x103;" horiz-adv-x="520" 
d="M195 -10q-36 0 -65.5 11.5t-50.5 30.5t-32.5 44.5t-11.5 53.5q0 60 38 99.5t102 50.5l175 30q0 38 -27.5 64t-72.5 26q-29 0 -51.5 -10.5t-39.5 -22.5q-19 -14 -34 -32l-65 65q20 25 48 45q24 17 59 31t83 14q45 0 82 -14t63 -39t40.5 -59t14.5 -73v-305h-100v70
q-15 -22 -38 -40q-20 -15 -49 -27.5t-68 -12.5zM215 75q28 0 52.5 10.5t43 29.5t29 44.5t10.5 55.5v15l-140 -25q-38 -7 -56.5 -24.5t-18.5 -40.5q0 -26 21 -45.5t59 -19.5zM265 560q-32 0 -58.5 10.5t-46 29.5t-30 44.5t-10.5 55.5h75q0 -30 20 -50t50 -20t50 20t20 50h75
q0 -30 -10.5 -55.5t-30 -44.5t-46 -29.5t-58.5 -10.5z" />
    <glyph glyph-name="Aogonek" unicode="&#x104;" horiz-adv-x="700" 
d="M590 -215q-45 0 -72.5 26.5t-27.5 68.5q0 34 23.5 67.5t61.5 52.5l-70 180h-310l-70 -180h-115l280 700h120l280 -700h-30q-42 -19 -71 -47.5t-29 -58.5q0 -19 13 -31.5t37 -12.5q26 0 50 10v-60q-9 -4 -20 -8q-10 -3 -22.5 -5t-27.5 -2zM465 280l-115 290l-115 -290h230
z" />
    <glyph glyph-name="aogonek" unicode="&#x105;" horiz-adv-x="520" 
d="M380 -215q-45 0 -72.5 26.5t-27.5 68.5q0 34 23.5 67.5t61.5 52.5h-15v70q-15 -22 -38 -40q-20 -15 -49 -27.5t-68 -12.5q-36 0 -65.5 11.5t-50.5 30.5t-32.5 44.5t-11.5 53.5q0 60 38 99.5t102 50.5l175 30q0 38 -27.5 64t-72.5 26q-29 0 -51.5 -10.5t-39.5 -22.5
q-19 -14 -34 -32l-65 65q20 25 48 45q24 17 59 31t83 14q45 0 82 -14t63 -39t40.5 -59t14.5 -73v-305q-42 -19 -71 -47.5t-29 -58.5q0 -19 13 -31.5t37 -12.5q26 0 50 10v-60q-9 -4 -20 -8q-10 -3 -22.5 -5t-27.5 -2zM215 75q28 0 52.5 10.5t43 29.5t29 44.5t10.5 55.5v15
l-140 -25q-38 -7 -56.5 -24.5t-18.5 -40.5q0 -26 21 -45.5t59 -19.5z" />
    <glyph glyph-name="Cacute" unicode="&#x106;" horiz-adv-x="745" 
d="M425 -10q-79 0 -146.5 28t-117 77t-78 114.5t-28.5 140.5t28.5 140.5t78 114.5t117 77t146.5 28q72 0 125 -21t89 -47q41 -30 71 -67l-70 -70q-21 29 -53 52q-27 20 -67.5 36.5t-94.5 16.5t-101.5 -20t-83 -55.5t-55.5 -83t-20 -101.5t20 -101.5t55.5 -83t83 -55.5
t101.5 -20t95 17t69 38q33 24 56 55l70 -70q-31 -39 -74 -70q-37 -26 -90.5 -48t-125.5 -22zM450 930h105l-105 -140h-75z" />
    <glyph glyph-name="cacute" unicode="&#x107;" horiz-adv-x="520" 
d="M290 -10q-53 0 -98.5 19.5t-79 53t-53 79t-19.5 98.5q0 52 19.5 98t53 79.5t79 53t98.5 19.5q51 0 88.5 -15t62.5 -33q29 -21 49 -47l-70 -65q-14 18 -33 32q-17 12 -41 22.5t-56 10.5t-59.5 -11.5t-47.5 -32t-31.5 -49t-11.5 -62.5t11.5 -62.5t31.5 -49t47.5 -32
t59.5 -11.5t57 10.5t42 24.5q20 15 36 35l70 -65q-22 -28 -52 -50q-26 -19 -64 -34.5t-89 -15.5zM320 700h105l-105 -140h-75z" />
    <glyph glyph-name="Ccircumflex" unicode="&#x108;" horiz-adv-x="745" 
d="M425 -10q-79 0 -146.5 28t-117 77t-78 114.5t-28.5 140.5t28.5 140.5t78 114.5t117 77t146.5 28q72 0 125 -21t89 -47q41 -30 71 -67l-70 -70q-21 29 -53 52q-27 20 -67.5 36.5t-94.5 16.5t-101.5 -20t-83 -55.5t-55.5 -83t-20 -101.5t20 -101.5t55.5 -83t83 -55.5
t101.5 -20t95 17t69 38q33 24 56 55l70 -70q-31 -39 -74 -70q-37 -26 -90.5 -48t-125.5 -22zM370 930h90l115 -140h-90l-70 85l-70 -85h-90z" />
    <glyph glyph-name="ccircumflex" unicode="&#x109;" horiz-adv-x="520" 
d="M290 -10q-53 0 -98.5 19.5t-79 53t-53 79t-19.5 98.5q0 52 19.5 98t53 79.5t79 53t98.5 19.5q51 0 88.5 -15t62.5 -33q29 -21 49 -47l-70 -65q-14 18 -33 32q-17 12 -41 22.5t-56 10.5t-59.5 -11.5t-47.5 -32t-31.5 -49t-11.5 -62.5t11.5 -62.5t31.5 -49t47.5 -32
t59.5 -11.5t57 10.5t42 24.5q20 15 36 35l70 -65q-22 -28 -52 -50q-26 -19 -64 -34.5t-89 -15.5zM240 700h90l115 -140h-90l-70 85l-70 -85h-90z" />
    <glyph glyph-name="Cdotaccent" unicode="&#x10a;" horiz-adv-x="745" 
d="M425 -10q-79 0 -146.5 28t-117 77t-78 114.5t-28.5 140.5t28.5 140.5t78 114.5t117 77t146.5 28q72 0 125 -21t89 -47q41 -30 71 -67l-70 -70q-21 29 -53 52q-27 20 -67.5 36.5t-94.5 16.5t-101.5 -20t-83 -55.5t-55.5 -83t-20 -101.5t20 -101.5t55.5 -83t83 -55.5
t101.5 -20t95 17t69 38q33 24 56 55l70 -70q-31 -39 -74 -70q-37 -26 -90.5 -48t-125.5 -22zM415 790q-23 0 -41.5 17t-18.5 43t18.5 43t41.5 17t41.5 -17t18.5 -43t-18.5 -43t-41.5 -17z" />
    <glyph glyph-name="cdotaccent" unicode="&#x10b;" horiz-adv-x="520" 
d="M290 -10q-53 0 -98.5 19.5t-79 53t-53 79t-19.5 98.5q0 52 19.5 98t53 79.5t79 53t98.5 19.5q51 0 88.5 -15t62.5 -33q29 -21 49 -47l-70 -65q-14 18 -33 32q-17 12 -41 22.5t-56 10.5t-59.5 -11.5t-47.5 -32t-31.5 -49t-11.5 -62.5t11.5 -62.5t31.5 -49t47.5 -32
t59.5 -11.5t57 10.5t42 24.5q20 15 36 35l70 -65q-22 -28 -52 -50q-26 -19 -64 -34.5t-89 -15.5zM285 570q-23 0 -41.5 17t-18.5 43t18.5 43t41.5 17t41.5 -17t18.5 -43t-18.5 -43t-41.5 -17z" />
    <glyph glyph-name="Ccaron" unicode="&#x10c;" horiz-adv-x="745" 
d="M425 -10q-79 0 -146.5 28t-117 77t-78 114.5t-28.5 140.5t28.5 140.5t78 114.5t117 77t146.5 28q72 0 125 -21t89 -47q41 -30 71 -67l-70 -70q-21 29 -53 52q-27 20 -67.5 36.5t-94.5 16.5t-101.5 -20t-83 -55.5t-55.5 -83t-20 -101.5t20 -101.5t55.5 -83t83 -55.5
t101.5 -20t95 17t69 38q33 24 56 55l70 -70q-31 -39 -74 -70q-37 -26 -90.5 -48t-125.5 -22zM255 930h90l70 -85l70 85h90l-115 -140h-90z" />
    <glyph glyph-name="ccaron" unicode="&#x10d;" horiz-adv-x="520" 
d="M290 -10q-53 0 -98.5 19.5t-79 53t-53 79t-19.5 98.5q0 52 19.5 98t53 79.5t79 53t98.5 19.5q51 0 88.5 -15t62.5 -33q29 -21 49 -47l-70 -65q-14 18 -33 32q-17 12 -41 22.5t-56 10.5t-59.5 -11.5t-47.5 -32t-31.5 -49t-11.5 -62.5t11.5 -62.5t31.5 -49t47.5 -32
t59.5 -11.5t57 10.5t42 24.5q20 15 36 35l70 -65q-22 -28 -52 -50q-26 -19 -64 -34.5t-89 -15.5zM125 700h90l70 -85l70 85h90l-115 -140h-90z" />
    <glyph glyph-name="Dcaron" unicode="&#x10e;" horiz-adv-x="755" 
d="M100 700h235q77 0 143.5 -28t116 -76t77.5 -111.5t28 -134.5t-28 -134.5t-77.5 -111.5t-116 -76t-143.5 -28h-235v700zM335 100q54 0 101 19.5t81 53t53.5 79t19.5 98.5q0 52 -19.5 98t-53.5 79.5t-81 53t-101 19.5h-125v-500h125zM215 930h90l70 -85l70 85h90l-115 -140
h-90z" />
    <glyph glyph-name="dcaron" unicode="&#x10f;" horiz-adv-x="655" 
d="M265 -10q-45 0 -86 18.5t-71.5 52t-49 79.5t-18.5 100t18.5 100t49 79.5t71.5 52t86 18.5q43 0 74.5 -12.5t51.5 -27.5q24 -18 39 -40v290h100v-700h-100v70q-15 -22 -39 -40q-20 -15 -51.5 -27.5t-74.5 -12.5zM285 85q30 0 56.5 11.5t46 32t31 49t11.5 62.5t-11.5 62.5
t-31 49t-46 32t-56.5 11.5t-56.5 -11.5t-46 -32t-31 -49t-11.5 -62.5t11.5 -62.5t31 -49t46 -32t56.5 -11.5zM625 700h95l-65 -140h-75z" />
    <glyph glyph-name="Dcroat" unicode="&#x110;" horiz-adv-x="765" 
d="M110 300h-90v100h90v300h235q77 0 143.5 -28t116 -76t77.5 -111.5t28 -134.5t-28 -134.5t-77.5 -111.5t-116 -76t-143.5 -28h-235v300zM345 100q54 0 101 19.5t81 53t53.5 79t19.5 98.5q0 52 -19.5 98t-53.5 79.5t-81 53t-101 19.5h-125v-200h155v-100h-155v-200h125z
" />
    <glyph glyph-name="dcroat" unicode="&#x111;" horiz-adv-x="605" 
d="M260 -10q-45 0 -85 18t-70 49.5t-47.5 75.5t-17.5 97q0 52 17.5 96.5t47.5 76t70 49.5t85 18q42 0 71.5 -12.5t49.5 -27.5q23 -18 39 -40v140h-120v95h120v75h100v-75h85v-95h-85v-530h-100v70q-16 -22 -39 -40q-20 -15 -49.5 -27.5t-71.5 -12.5zM280 85q30 0 55.5 10.5
t44.5 30t29.5 46t10.5 58.5t-10.5 58.5t-29.5 46t-44.5 30t-55.5 10.5t-55.5 -10.5t-44.5 -30t-29.5 -46t-10.5 -58.5t10.5 -58.5t29.5 -46t44.5 -30t55.5 -10.5z" />
    <glyph glyph-name="Emacron" unicode="&#x112;" horiz-adv-x="650" 
d="M100 700h495v-105h-385v-180h305v-105h-305v-205h395v-105h-505v700zM205 895h300v-70h-300v70z" />
    <glyph glyph-name="emacron" unicode="&#x113;" horiz-adv-x="560" 
d="M290 -10q-53 0 -98.5 19.5t-79 53t-53 79t-19.5 98.5q0 52 19.5 98t52.5 79.5t77.5 53t95.5 19.5t94 -17.5t74.5 -49t49 -74.5t17.5 -94q0 -11 -1 -20t-2 -16q-1 -8 -2 -14h-370q4 -24 16.5 -46t32 -38.5t45.5 -26t56 -9.5q32 0 58 10t44 22q21 14 38 33l60 -70
q-20 -26 -50 -45q-26 -17 -64 -31t-91 -14zM415 290q-11 49 -44 79.5t-86 30.5q-57 0 -91 -30.5t-49 -79.5h270zM135 675h300v-70h-300v70z" />
    <glyph glyph-name="Ebreve" unicode="&#x114;" horiz-adv-x="650" 
d="M100 700h495v-105h-385v-180h305v-105h-305v-205h395v-105h-505v700zM355 790q-32 0 -58.5 10.5t-46 29.5t-30 44.5t-10.5 55.5h75q0 -30 20 -50t50 -20t50 20t20 50h75q0 -30 -10.5 -55.5t-30 -44.5t-46 -29.5t-58.5 -10.5z" />
    <glyph glyph-name="ebreve" unicode="&#x115;" horiz-adv-x="560" 
d="M290 -10q-53 0 -98.5 19.5t-79 53t-53 79t-19.5 98.5q0 52 19.5 98t52.5 79.5t77.5 53t95.5 19.5t94 -17.5t74.5 -49t49 -74.5t17.5 -94q0 -11 -1 -20t-2 -16q-1 -8 -2 -14h-370q4 -24 16.5 -46t32 -38.5t45.5 -26t56 -9.5q32 0 58 10t44 22q21 14 38 33l60 -70
q-20 -26 -50 -45q-26 -17 -64 -31t-91 -14zM415 290q-11 49 -44 79.5t-86 30.5q-57 0 -91 -30.5t-49 -79.5h270zM285 560q-32 0 -58.5 10.5t-46 29.5t-30 44.5t-10.5 55.5h75q0 -30 20 -50t50 -20t50 20t20 50h75q0 -30 -10.5 -55.5t-30 -44.5t-46 -29.5t-58.5 -10.5z" />
    <glyph glyph-name="Edotaccent" unicode="&#x116;" horiz-adv-x="650" 
d="M100 700h495v-105h-385v-180h305v-105h-305v-205h395v-105h-505v700zM355 790q-23 0 -41.5 17t-18.5 43t18.5 43t41.5 17t41.5 -17t18.5 -43t-18.5 -43t-41.5 -17z" />
    <glyph glyph-name="edotaccent" unicode="&#x117;" horiz-adv-x="560" 
d="M290 -10q-53 0 -98.5 19.5t-79 53t-53 79t-19.5 98.5q0 52 19.5 98t52.5 79.5t77.5 53t95.5 19.5t94 -17.5t74.5 -49t49 -74.5t17.5 -94q0 -11 -1 -20t-2 -16q-1 -8 -2 -14h-370q4 -24 16.5 -46t32 -38.5t45.5 -26t56 -9.5q32 0 58 10t44 22q21 14 38 33l60 -70
q-20 -26 -50 -45q-26 -17 -64 -31t-91 -14zM415 290q-11 49 -44 79.5t-86 30.5q-57 0 -91 -30.5t-49 -79.5h270zM285 570q-23 0 -41.5 17t-18.5 43t18.5 43t41.5 17t41.5 -17t18.5 -43t-18.5 -43t-41.5 -17z" />
    <glyph glyph-name="Eogonek" unicode="&#x118;" horiz-adv-x="650" 
d="M535 -215q-45 0 -72.5 26.5t-27.5 68.5q0 34 23.5 67.5t61.5 52.5h-420v700h495v-105h-385v-180h305v-105h-305v-205h395v-105q-42 -19 -71 -47.5t-29 -58.5q0 -19 13 -31.5t37 -12.5q26 0 50 10v-60q-9 -4 -20 -8q-10 -3 -22.5 -5t-27.5 -2z" />
    <glyph glyph-name="eogonek" unicode="&#x119;" horiz-adv-x="560" 
d="M369 -215q-45 0 -72.5 26.5t-27.5 68.5q0 38 19 67t39 46q-18 -3 -37 -3q-53 0 -98.5 19.5t-79 53t-53 79t-19.5 98.5q0 52 19.5 98t52.5 79.5t77.5 53t95.5 19.5t94 -17.5t74.5 -49t49 -74.5t17.5 -94q0 -11 -1 -20t-2 -16q-1 -8 -2 -14h-370q4 -24 16.5 -46t32 -38.5
t45.5 -26t56 -9.5q32 0 58 10t44 22q21 14 38 33l60 -70q-7 -8 -22 -22t-45 -33q-46 -29 -67.5 -62.5t-21.5 -65.5q0 -22 13 -34.5t37 -12.5q26 0 50 10v-60q-9 -4 -20 -8q-10 -3 -22.5 -5t-27.5 -2zM415 290q-11 49 -44 79.5t-86 30.5q-57 0 -91 -30.5t-49 -79.5h270z" />
    <glyph glyph-name="Ecaron" unicode="&#x11a;" horiz-adv-x="650" 
d="M100 700h495v-105h-385v-180h305v-105h-305v-205h395v-105h-505v700zM195 930h90l70 -85l70 85h90l-115 -140h-90z" />
    <glyph glyph-name="ecaron" unicode="&#x11b;" horiz-adv-x="560" 
d="M290 -10q-53 0 -98.5 19.5t-79 53t-53 79t-19.5 98.5q0 52 19.5 98t52.5 79.5t77.5 53t95.5 19.5t94 -17.5t74.5 -49t49 -74.5t17.5 -94q0 -11 -1 -20t-2 -16q-1 -8 -2 -14h-370q4 -24 16.5 -46t32 -38.5t45.5 -26t56 -9.5q32 0 58 10t44 22q21 14 38 33l60 -70
q-20 -26 -50 -45q-26 -17 -64 -31t-91 -14zM415 290q-11 49 -44 79.5t-86 30.5q-57 0 -91 -30.5t-49 -79.5h270zM125 700h90l70 -85l70 85h90l-115 -140h-90z" />
    <glyph glyph-name="Gcircumflex" unicode="&#x11c;" horiz-adv-x="805" 
d="M425 -10q-79 0 -146.5 28t-117 77t-78 114.5t-28.5 140.5t28.5 140.5t78 114.5t117 77t146.5 28q72 0 125 -21t89 -47q41 -30 71 -67l-70 -70q-21 29 -53 52q-27 20 -67.5 36.5t-94.5 16.5t-101.5 -20t-83 -55.5t-55.5 -83t-20 -101.5t20 -101.5t55.5 -83t83 -55.5
t101.5 -20q47 0 82.5 11.5t59.5 25.5q28 17 48 38v105h-145v100h255v-245q-32 -38 -77 -68q-38 -26 -94 -46.5t-129 -20.5zM365 930h90l115 -140h-90l-70 85l-70 -85h-90z" />
    <glyph glyph-name="gcircumflex" unicode="&#x11d;" 
d="M260 -210q-51 0 -89 15.5t-64 34.5q-30 22 -52 50l70 65q16 -20 36 -35q17 -14 42 -24.5t57 -10.5q68 0 109 41.5t41 113.5v45q-15 -21 -38 -38q-20 -14 -49 -25.5t-68 -11.5q-43 0 -82 18t-68.5 49.5t-47 75.5t-17.5 97q0 52 17.5 96.5t47 76t68.5 49.5t82 18
q39 0 68 -12t49 -26q23 -17 38 -37v65h100v-440q0 -54 -18.5 -100t-52 -79.5t-79.5 -52t-100 -18.5zM275 105q28 0 52.5 10.5t43 30t29 46t10.5 58.5t-10.5 58.5t-29 46t-43 30t-52.5 10.5t-52.5 -10.5t-43 -30t-29 -46t-10.5 -58.5t10.5 -58.5t29 -46t43 -30t52.5 -10.5z
M240 700h90l115 -140h-90l-70 85l-70 -85h-90z" />
    <glyph glyph-name="Gbreve" unicode="&#x11e;" horiz-adv-x="805" 
d="M425 -10q-79 0 -146.5 28t-117 77t-78 114.5t-28.5 140.5t28.5 140.5t78 114.5t117 77t146.5 28q72 0 125 -21t89 -47q41 -30 71 -67l-70 -70q-21 29 -53 52q-27 20 -67.5 36.5t-94.5 16.5t-101.5 -20t-83 -55.5t-55.5 -83t-20 -101.5t20 -101.5t55.5 -83t83 -55.5
t101.5 -20q47 0 82.5 11.5t59.5 25.5q28 17 48 38v105h-145v100h255v-245q-32 -38 -77 -68q-38 -26 -94 -46.5t-129 -20.5zM410 790q-32 0 -58.5 10.5t-46 29.5t-30 44.5t-10.5 55.5h75q0 -30 20 -50t50 -20t50 20t20 50h75q0 -30 -10.5 -55.5t-30 -44.5t-46 -29.5
t-58.5 -10.5z" />
    <glyph glyph-name="gbreve" unicode="&#x11f;" 
d="M260 -210q-51 0 -89 15.5t-64 34.5q-30 22 -52 50l70 65q16 -20 36 -35q17 -14 42 -24.5t57 -10.5q68 0 109 41.5t41 113.5v45q-15 -21 -38 -38q-20 -14 -49 -25.5t-68 -11.5q-43 0 -82 18t-68.5 49.5t-47 75.5t-17.5 97q0 52 17.5 96.5t47 76t68.5 49.5t82 18
q39 0 68 -12t49 -26q23 -17 38 -37v65h100v-440q0 -54 -18.5 -100t-52 -79.5t-79.5 -52t-100 -18.5zM275 105q28 0 52.5 10.5t43 30t29 46t10.5 58.5t-10.5 58.5t-29 46t-43 30t-52.5 10.5t-52.5 -10.5t-43 -30t-29 -46t-10.5 -58.5t10.5 -58.5t29 -46t43 -30t52.5 -10.5z
M285 560q-32 0 -58.5 10.5t-46 29.5t-30 44.5t-10.5 55.5h75q0 -30 20 -50t50 -20t50 20t20 50h75q0 -30 -10.5 -55.5t-30 -44.5t-46 -29.5t-58.5 -10.5z" />
    <glyph glyph-name="Gdotaccent" unicode="&#x120;" horiz-adv-x="805" 
d="M425 -10q-79 0 -146.5 28t-117 77t-78 114.5t-28.5 140.5t28.5 140.5t78 114.5t117 77t146.5 28q72 0 125 -21t89 -47q41 -30 71 -67l-70 -70q-21 29 -53 52q-27 20 -67.5 36.5t-94.5 16.5t-101.5 -20t-83 -55.5t-55.5 -83t-20 -101.5t20 -101.5t55.5 -83t83 -55.5
t101.5 -20q47 0 82.5 11.5t59.5 25.5q28 17 48 38v105h-145v100h255v-245q-32 -38 -77 -68q-38 -26 -94 -46.5t-129 -20.5zM415 790q-23 0 -41.5 17t-18.5 43t18.5 43t41.5 17t41.5 -17t18.5 -43t-18.5 -43t-41.5 -17z" />
    <glyph glyph-name="gdotaccent" unicode="&#x121;" 
d="M260 -210q-51 0 -89 15.5t-64 34.5q-30 22 -52 50l70 65q16 -20 36 -35q17 -14 42 -24.5t57 -10.5q68 0 109 41.5t41 113.5v45q-15 -21 -38 -38q-20 -14 -49 -25.5t-68 -11.5q-43 0 -82 18t-68.5 49.5t-47 75.5t-17.5 97q0 52 17.5 96.5t47 76t68.5 49.5t82 18
q39 0 68 -12t49 -26q23 -17 38 -37v65h100v-440q0 -54 -18.5 -100t-52 -79.5t-79.5 -52t-100 -18.5zM275 105q28 0 52.5 10.5t43 30t29 46t10.5 58.5t-10.5 58.5t-29 46t-43 30t-52.5 10.5t-52.5 -10.5t-43 -30t-29 -46t-10.5 -58.5t10.5 -58.5t29 -46t43 -30t52.5 -10.5z
M285 570q-23 0 -41.5 17t-18.5 43t18.5 43t41.5 17t41.5 -17t18.5 -43t-18.5 -43t-41.5 -17z" />
    <glyph glyph-name="Gcommaaccent" unicode="&#x122;" horiz-adv-x="805" 
d="M425 -10q-79 0 -146.5 28t-117 77t-78 114.5t-28.5 140.5t28.5 140.5t78 114.5t117 77t146.5 28q72 0 125 -21t89 -47q41 -30 71 -67l-70 -70q-21 29 -53 52q-27 20 -67.5 36.5t-94.5 16.5t-101.5 -20t-83 -55.5t-55.5 -83t-20 -101.5t20 -101.5t55.5 -83t83 -55.5
t101.5 -20q47 0 82.5 11.5t59.5 25.5q28 17 48 38v105h-145v100h255v-245q-32 -38 -77 -68q-38 -26 -94 -46.5t-129 -20.5zM370 -80h95l-65 -140h-75z" />
    <glyph glyph-name="gcommaaccent" unicode="&#x123;" 
d="M295 700h70l-45 -140h-90zM260 -210q-51 0 -89 15.5t-64 34.5q-30 22 -52 50l70 65q16 -20 36 -35q17 -14 42 -24.5t57 -10.5q68 0 109 41.5t41 113.5v45q-15 -21 -38 -38q-20 -14 -49 -25.5t-68 -11.5q-43 0 -82 18t-68.5 49.5t-47 75.5t-17.5 97q0 52 17.5 96.5t47 76
t68.5 49.5t82 18q39 0 68 -12t49 -26q23 -17 38 -37v65h100v-440q0 -54 -18.5 -100t-52 -79.5t-79.5 -52t-100 -18.5zM275 105q28 0 52.5 10.5t43 30t29 46t10.5 58.5t-10.5 58.5t-29 46t-43 30t-52.5 10.5t-52.5 -10.5t-43 -30t-29 -46t-10.5 -58.5t10.5 -58.5t29 -46
t43 -30t52.5 -10.5z" />
    <glyph glyph-name="Hcircumflex" unicode="&#x124;" horiz-adv-x="765" 
d="M100 700h110v-295h345v295h110v-700h-110v305h-345v-305h-110v700zM335 930h90l115 -140h-90l-70 85l-70 -85h-90z" />
    <glyph glyph-name="hcircumflex" unicode="&#x125;" horiz-adv-x="585" 
d="M75 700h100v-290q15 22 37 40q19 15 47 27.5t66 12.5q41 0 76 -14.5t60.5 -41.5t39.5 -66t14 -88v-280h-100v280q0 53 -30.5 84t-79.5 31q-28 0 -52 -10t-41 -27.5t-27 -42.5t-10 -55v-260h-100v700zM245 930h90l115 -140h-90l-70 85l-70 -85h-90z" />
    <glyph glyph-name="Hbar" unicode="&#x126;" horiz-adv-x="775" 
d="M115 490h-95v95h95v115h110v-115h325v115h110v-115h95v-95h-95v-490h-110v280h-325v-280h-110v490zM550 380v110h-325v-110h325z" />
    <glyph glyph-name="hbar" unicode="&#x127;" horiz-adv-x="595" 
d="M85 530h-85v95h85v75h100v-75h130v-95h-130v-145q15 22 37 40q19 15 47 27.5t66 12.5q41 0 76 -14.5t60.5 -41.5t39.5 -66t14 -88v-255h-100v255q0 53 -30.5 84t-79.5 31q-28 0 -52 -10t-41 -27.5t-27 -42.5t-10 -55v-235h-100v530z" />
    <glyph glyph-name="uni0128" unicode="&#x128;" horiz-adv-x="310" 
d="M100 700h110v-700h-110v700zM-10 790q0 72 27.5 103.5t72.5 31.5q24 0 42 -9.5t32.5 -20.5t27.5 -20.5t28 -9.5q19 0 29.5 13t10.5 47h65q0 -72 -27.5 -103.5t-72.5 -31.5q-24 0 -42 9.5t-32.5 20.5t-27.5 20.5t-28 9.5q-19 0 -29.5 -13t-10.5 -47h-65v0z" />
    <glyph glyph-name="uni0129" unicode="&#x129;" horiz-adv-x="250" 
d="M75 480h100v-480h-100v480zM-40 560q0 72 27.5 103.5t72.5 31.5q24 0 42 -9.5t32.5 -20.5t27.5 -20.5t28 -9.5q19 0 29.5 13t10.5 47h65q0 -72 -27.5 -103.5t-72.5 -31.5q-24 0 -42 9.5t-32.5 20.5t-27.5 20.5t-28 9.5q-19 0 -29.5 -13t-10.5 -47h-65v0z" />
    <glyph glyph-name="Imacron" unicode="&#x12a;" horiz-adv-x="310" 
d="M100 700h110v-700h-110v700zM5 895h300v-70h-300v70z" />
    <glyph glyph-name="imacron" unicode="&#x12b;" horiz-adv-x="250" 
d="M75 480h100v-480h-100v480zM-25 675h300v-70h-300v70z" />
    <glyph glyph-name="Ibreve" unicode="&#x12c;" horiz-adv-x="310" 
d="M100 700h110v-700h-110v700zM155 790q-32 0 -58.5 10.5t-46 29.5t-30 44.5t-10.5 55.5h75q0 -30 20 -50t50 -20t50 20t20 50h75q0 -30 -10.5 -55.5t-30 -44.5t-46 -29.5t-58.5 -10.5z" />
    <glyph glyph-name="ibreve" unicode="&#x12d;" horiz-adv-x="250" 
d="M75 480h100v-480h-100v480zM125 560q-32 0 -58.5 10.5t-46 29.5t-30 44.5t-10.5 55.5h75q0 -30 20 -50t50 -20t50 20t20 50h75q0 -30 -10.5 -55.5t-30 -44.5t-46 -29.5t-58.5 -10.5z" />
    <glyph glyph-name="Iogonek" unicode="&#x12e;" horiz-adv-x="310" 
d="M140 -215q-45 0 -72.5 26.5t-27.5 68.5q0 34 23.5 67.5t61.5 52.5h-25v700h110v-700q-42 -19 -71 -47.5t-29 -58.5q0 -19 13 -31.5t37 -12.5q26 0 50 10v-60q-9 -4 -20 -8q-10 -3 -22.5 -5t-27.5 -2z" />
    <glyph glyph-name="iogonek" unicode="&#x12f;" horiz-adv-x="250" 
d="M105 -215q-45 0 -72.5 26.5t-27.5 68.5q0 34 23.5 67.5t61.5 52.5h-15v480h100v-480q-42 -19 -71 -47.5t-29 -58.5q0 -19 13 -31.5t37 -12.5q26 0 50 10v-60q-9 -4 -20 -8q-10 -3 -22.5 -5t-27.5 -2zM125 570q-23 0 -41.5 17t-18.5 43t18.5 43t41.5 17t41.5 -17t18.5 -43
t-18.5 -43t-41.5 -17z" />
    <glyph glyph-name="Idotaccent" unicode="&#x130;" horiz-adv-x="310" 
d="M100 700h110v-700h-110v700zM155 790q-23 0 -41.5 17t-18.5 43t18.5 43t41.5 17t41.5 -17t18.5 -43t-18.5 -43t-41.5 -17z" />
    <glyph glyph-name="dotlessi" unicode="&#x131;" horiz-adv-x="250" 
d="M75 480h100v-480h-100v480z" />
    <glyph glyph-name="uni0132" unicode="&#x132;" horiz-adv-x="750" 
d="M100 700h110v-700h-110v700zM435 -10q-48 0 -82 12.5t-57 27.5q-27 18 -46 40l70 70q12 -14 29 -25q14 -10 35.5 -17.5t50.5 -7.5q53 0 84 32.5t31 92.5v485h110v-485q0 -51 -16 -92.5t-45.5 -71t-71 -45.5t-92.5 -16z" />
    <glyph glyph-name="uni0133" unicode="&#x133;" horiz-adv-x="490" 
d="M75 480h100v-480h-100v480zM265 -210q-17 0 -30.5 2t-23.5 5q-11 4 -21 8v95q7 -4 16 -8q17 -7 39 -7q70 0 70 75v520h100v-530q0 -79 -39 -119.5t-111 -40.5zM125 570q-23 0 -41.5 17t-18.5 43t18.5 43t41.5 17t41.5 -17t18.5 -43t-18.5 -43t-41.5 -17zM365 570
q-23 0 -41.5 17t-18.5 43t18.5 43t41.5 17t41.5 -17t18.5 -43t-18.5 -43t-41.5 -17z" />
    <glyph glyph-name="Jcircumflex" unicode="&#x134;" horiz-adv-x="500" 
d="M185 -10q-48 0 -82 12.5t-57 27.5q-27 18 -46 40l70 70q12 -14 29 -25q14 -10 35.5 -17.5t50.5 -7.5q53 0 84 32.5t31 92.5v485h110v-485q0 -51 -16 -92.5t-45.5 -71t-71 -45.5t-92.5 -16zM310 930h90l115 -140h-90l-70 85l-70 -85h-90z" />
    <glyph glyph-name="jcircumflex" unicode="&#x135;" horiz-adv-x="250" 
d="M25 -210q-17 0 -30.5 2t-23.5 5q-11 4 -21 8v95q7 -4 16 -8q17 -7 39 -7q70 0 70 75v520h100v-530q0 -79 -39 -119.5t-111 -40.5zM80 700h90l115 -140h-90l-70 85l-70 -85h-90z" />
    <glyph glyph-name="Kcommaaccent" unicode="&#x136;" horiz-adv-x="685" 
d="M100 700h110v-340l315 340h140l-270 -290l290 -410h-135l-230 330l-110 -120v-210h-110v700zM325 -80h95l-65 -140h-75z" />
    <glyph glyph-name="kcommaaccent" unicode="&#x137;" horiz-adv-x="520" 
d="M75 700h100v-440l205 220h125l-185 -195l200 -285h-115l-150 215l-80 -85v-130h-100v700zM240 -80h95l-65 -140h-75z" />
    <glyph glyph-name="Lacute" unicode="&#x139;" horiz-adv-x="570" 
d="M100 700h110v-595h340v-105h-450v700zM195 930h105l-105 -140h-75z" />
    <glyph glyph-name="lacute" unicode="&#x13a;" horiz-adv-x="250" 
d="M75 700h100v-700h-100v700zM165 930h105l-105 -140h-75z" />
    <glyph glyph-name="Lcommaaccent" unicode="&#x13b;" horiz-adv-x="570" 
d="M100 700h110v-595h340v-105h-450v700zM285 -80h95l-65 -140h-75z" />
    <glyph glyph-name="lcommaaccent" unicode="&#x13c;" horiz-adv-x="250" 
d="M75 700h100v-700h-100v700zM80 -80h95l-65 -140h-75z" />
    <glyph glyph-name="Lcaron" unicode="&#x13d;" horiz-adv-x="570" 
d="M100 700h110v-595h340v-105h-450v700zM325 700h95l-65 -140h-75z" />
    <glyph glyph-name="lcaron" unicode="&#x13e;" horiz-adv-x="300" 
d="M75 700h100v-700h-100v700zM270 700h95l-65 -140h-75z" />
    <glyph glyph-name="Ldot" unicode="&#x13f;" horiz-adv-x="570" 
d="M100 700h110v-595h340v-105h-450v700zM430 320q-23 0 -41.5 17t-18.5 43t18.5 43t41.5 17t41.5 -17t18.5 -43t-18.5 -43t-41.5 -17z" />
    <glyph glyph-name="ldot" unicode="&#x140;" horiz-adv-x="375" 
d="M75 700h100v-700h-100v700zM310 290q-23 0 -41.5 17t-18.5 43t18.5 43t41.5 17t41.5 -17t18.5 -43t-18.5 -43t-41.5 -17z" />
    <glyph glyph-name="Lslash" unicode="&#x141;" horiz-adv-x="625" 
d="M155 265l-110 -65l-45 80l155 90v330h110v-270l120 70l45 -80l-165 -95v-220h340v-105h-450v265z" />
    <glyph glyph-name="lslash" unicode="&#x142;" horiz-adv-x="370" 
d="M135 277l-110 -67l-45 75l155 95v320h100v-262l110 67l45 -75l-155 -95v-335h-100v277z" />
    <glyph glyph-name="Nacute" unicode="&#x143;" horiz-adv-x="795" 
d="M100 700h100l385 -515v515h110v-700h-100l-385 515v-515h-110v700zM440 930h105l-105 -140h-75z" />
    <glyph glyph-name="nacute" unicode="&#x144;" 
d="M70 480h100v-70q15 22 37 40q19 15 47 27.5t66 12.5q41 0 76 -14.5t60.5 -41.5t39.5 -66t14 -88v-280h-100v280q0 53 -30.5 84t-79.5 31q-28 0 -52 -10t-41 -27.5t-27 -42.5t-10 -55v-260h-100v480zM330 700h105l-105 -140h-75z" />
    <glyph glyph-name="Ncommaaccent" unicode="&#x145;" horiz-adv-x="795" 
d="M100 700h100l385 -515v515h110v-700h-100l-385 515v-515h-110v700zM365 -80h95l-65 -140h-75z" />
    <glyph glyph-name="ncommaaccent" unicode="&#x146;" 
d="M70 480h100v-70q15 22 37 40q19 15 47 27.5t66 12.5q41 0 76 -14.5t60.5 -41.5t39.5 -66t14 -88v-280h-100v280q0 53 -30.5 84t-79.5 31q-28 0 -52 -10t-41 -27.5t-27 -42.5t-10 -55v-260h-100v480zM250 -80h95l-65 -140h-75z" />
    <glyph glyph-name="Ncaron" unicode="&#x147;" horiz-adv-x="795" 
d="M100 700h100l385 -515v515h110v-700h-100l-385 515v-515h-110v700zM240 930h90l70 -85l70 85h90l-115 -140h-90z" />
    <glyph glyph-name="ncaron" unicode="&#x148;" 
d="M70 480h100v-70q15 22 37 40q19 15 47 27.5t66 12.5q41 0 76 -14.5t60.5 -41.5t39.5 -66t14 -88v-280h-100v280q0 53 -30.5 84t-79.5 31q-28 0 -52 -10t-41 -27.5t-27 -42.5t-10 -55v-260h-100v480zM135 700h90l70 -85l70 85h90l-115 -140h-90z" />
    <glyph glyph-name="napostrophe" unicode="&#x149;" 
d="M70 480h100v-70q15 22 37 40q19 15 47 27.5t66 12.5q41 0 76 -14.5t60.5 -41.5t39.5 -66t14 -88v-280h-100v280q0 53 -30.5 84t-79.5 31q-28 0 -52 -10t-41 -27.5t-27 -42.5t-10 -55v-260h-100v480zM20 680h95l-65 -140h-75z" />
    <glyph glyph-name="Eng" unicode="&#x14a;" horiz-adv-x="795" 
d="M485 -225q-44 0 -76.5 10.5t-54.5 24.5q-26 15 -44 35l75 75q11 -11 25 -20q12 -8 29.5 -14t40.5 -6q49 0 77 30t28 90v15l-375 500v-515h-110v700h100l385 -515v515h110v-700q0 -51 -16 -92.5t-44 -71t-66.5 -45.5t-83.5 -16z" />
    <glyph glyph-name="eng" unicode="&#x14b;" 
d="M370 -215q-15 0 -28 2t-22 5q-11 4 -20 8v95q8 -3 16 -5q15 -5 34 -5q26 0 43 17.5t17 47.5v330q0 53 -30.5 84t-79.5 31q-28 0 -52 -10t-41 -27.5t-27 -42.5t-10 -55v-260h-100v480h100v-70q15 22 37 40q19 15 47 27.5t66 12.5q41 0 76 -14.5t60.5 -41.5t39.5 -66
t14 -88v-340q0 -79 -36 -117t-104 -38z" />
    <glyph glyph-name="Omacron" unicode="&#x14c;" horiz-adv-x="850" 
d="M425 -10q-79 0 -146.5 28t-117 77t-78 114.5t-28.5 140.5t28.5 140.5t78 114.5t117 77t146.5 28t146.5 -28t117 -77t78 -114.5t28.5 -140.5t-28.5 -140.5t-78 -114.5t-117 -77t-146.5 -28zM425 90q54 0 101.5 20t83 55.5t55.5 83t20 101.5t-20 101.5t-55.5 83t-83 55.5
t-101.5 20t-101.5 -20t-83 -55.5t-55.5 -83t-20 -101.5t20 -101.5t55.5 -83t83 -55.5t101.5 -20zM274 895h300v-70h-300v70z" />
    <glyph glyph-name="omacron" unicode="&#x14d;" 
d="M290 -10q-53 0 -98.5 19.5t-79 53t-53 79t-19.5 98.5q0 52 19.5 98t53 79.5t79 53t98.5 19.5q52 0 98 -19.5t79.5 -53t53 -79.5t19.5 -98q0 -53 -19.5 -98.5t-53 -79t-79.5 -53t-98 -19.5zM290 85q32 0 59.5 11.5t47.5 32t31.5 49t11.5 62.5t-11.5 62.5t-31.5 49
t-47.5 32t-59.5 11.5t-59.5 -11.5t-47.5 -32t-31.5 -49t-11.5 -62.5t11.5 -62.5t31.5 -49t47.5 -32t59.5 -11.5zM140 675h300v-70h-300v70z" />
    <glyph glyph-name="Obreve" unicode="&#x14e;" horiz-adv-x="850" 
d="M425 -10q-79 0 -146.5 28t-117 77t-78 114.5t-28.5 140.5t28.5 140.5t78 114.5t117 77t146.5 28t146.5 -28t117 -77t78 -114.5t28.5 -140.5t-28.5 -140.5t-78 -114.5t-117 -77t-146.5 -28zM425 90q54 0 101.5 20t83 55.5t55.5 83t20 101.5t-20 101.5t-55.5 83t-83 55.5
t-101.5 20t-101.5 -20t-83 -55.5t-55.5 -83t-20 -101.5t20 -101.5t55.5 -83t83 -55.5t101.5 -20zM424 790q-32 0 -58.5 10.5t-46 29.5t-30 44.5t-10.5 55.5h75q0 -30 20 -50t50 -20t50 20t20 50h75q0 -30 -10.5 -55.5t-30 -44.5t-46 -29.5t-58.5 -10.5z" />
    <glyph glyph-name="obreve" unicode="&#x14f;" 
d="M290 -10q-53 0 -98.5 19.5t-79 53t-53 79t-19.5 98.5q0 52 19.5 98t53 79.5t79 53t98.5 19.5q52 0 98 -19.5t79.5 -53t53 -79.5t19.5 -98q0 -53 -19.5 -98.5t-53 -79t-79.5 -53t-98 -19.5zM290 85q32 0 59.5 11.5t47.5 32t31.5 49t11.5 62.5t-11.5 62.5t-31.5 49
t-47.5 32t-59.5 11.5t-59.5 -11.5t-47.5 -32t-31.5 -49t-11.5 -62.5t11.5 -62.5t31.5 -49t47.5 -32t59.5 -11.5zM290 560q-32 0 -58.5 10.5t-46 29.5t-30 44.5t-10.5 55.5h75q0 -30 20 -50t50 -20t50 20t20 50h75q0 -30 -10.5 -55.5t-30 -44.5t-46 -29.5t-58.5 -10.5z" />
    <glyph glyph-name="Ohungarumlaut" unicode="&#x150;" horiz-adv-x="850" 
d="M425 -10q-79 0 -146.5 28t-117 77t-78 114.5t-28.5 140.5t28.5 140.5t78 114.5t117 77t146.5 28t146.5 -28t117 -77t78 -114.5t28.5 -140.5t-28.5 -140.5t-78 -114.5t-117 -77t-146.5 -28zM425 90q54 0 101.5 20t83 55.5t55.5 83t20 101.5t-20 101.5t-55.5 83t-83 55.5
t-101.5 20t-101.5 -20t-83 -55.5t-55.5 -83t-20 -101.5t20 -101.5t55.5 -83t83 -55.5t101.5 -20zM374 930h105l-105 -140h-75zM549 930h105l-105 -140h-75z" />
    <glyph glyph-name="ohungarumlaut" unicode="&#x151;" 
d="M290 -10q-53 0 -98.5 19.5t-79 53t-53 79t-19.5 98.5q0 52 19.5 98t53 79.5t79 53t98.5 19.5q52 0 98 -19.5t79.5 -53t53 -79.5t19.5 -98q0 -53 -19.5 -98.5t-53 -79t-79.5 -53t-98 -19.5zM290 85q32 0 59.5 11.5t47.5 32t31.5 49t11.5 62.5t-11.5 62.5t-31.5 49
t-47.5 32t-59.5 11.5t-59.5 -11.5t-47.5 -32t-31.5 -49t-11.5 -62.5t11.5 -62.5t31.5 -49t47.5 -32t59.5 -11.5zM240 700h105l-105 -140h-75zM415 700h105l-105 -140h-75z" />
    <glyph glyph-name="OE" unicode="&#x152;" horiz-adv-x="1015" 
d="M420 0q-77 0 -143.5 28t-116 76t-77.5 111.5t-28 134.5t28 134.5t77.5 111.5t116 76t143.5 28h540v-105h-345v-180h265v-105h-265v-205h355v-105h-550zM505 105v490h-85q-53 0 -99 -18.5t-81 -51.5t-55 -78t-20 -97q0 -53 20 -97.5t55 -77.5t81 -51.5t99 -18.5h85z" />
    <glyph glyph-name="oe" unicode="&#x153;" horiz-adv-x="935" 
d="M285 -10q-51 0 -95.5 19.5t-77.5 53t-52.5 79t-19.5 98.5q0 52 19.5 98t52.5 79.5t77.5 53t95.5 19.5q49 0 85 -15.5t61 -34.5q28 -22 49 -50q20 28 47 50q23 19 58 34.5t80 15.5q49 0 91 -17.5t73 -49t48.5 -74.5t17.5 -94q0 -11 -1 -20t-2 -16q-1 -8 -2 -14h-360
q4 -24 16.5 -46t31.5 -38.5t44 -26t53 -9.5q30 0 54.5 10t42.5 22q21 14 38 33l60 -70q-20 -26 -49 -45q-25 -17 -62.5 -31t-88.5 -14q-48 0 -83 16t-59 36q-28 23 -48 53q-19 -30 -47 -53q-24 -20 -60.5 -36t-87.5 -16zM285 85q30 0 56.5 11.5t46 32t31 49t11.5 62.5
t-11.5 62.5t-31 49t-46 32t-56.5 11.5t-56.5 -11.5t-46 -32t-31 -49t-11.5 -62.5t11.5 -62.5t31 -49t46 -32t56.5 -11.5zM790 290q-11 49 -43.5 79.5t-81.5 30.5q-53 0 -86.5 -30.5t-48.5 -79.5h260z" />
    <glyph glyph-name="Racute" unicode="&#x154;" horiz-adv-x="690" 
d="M100 700h290q51 0 93 -17t72.5 -46.5t47.5 -69.5t17 -87q0 -59 -21 -97t-46 -61q-30 -27 -67 -42l159 -280h-125l-145 260h-165v-260h-110v700zM390 360q53 0 86.5 33.5t33.5 86.5t-33.5 86.5t-86.5 33.5h-180v-240h180zM380 930h105l-105 -140h-75z" />
    <glyph glyph-name="racute" unicode="&#x155;" horiz-adv-x="360" 
d="M70 480h100v-65q16 20 37 37q18 14 45 26t63 12h25v-105q-7 1 -13 2t-12.5 2t-14.5 1q-26 0 -49.5 -10.5t-41.5 -30t-28.5 -46t-10.5 -58.5v-245h-100v480zM240 700h105l-105 -140h-75z" />
    <glyph glyph-name="Rcommaaccent" unicode="&#x156;" horiz-adv-x="690" 
d="M100 700h290q51 0 93 -17t72.5 -46.5t47.5 -69.5t17 -87q0 -59 -21 -97t-46 -61q-30 -27 -67 -42l159 -280h-125l-145 260h-165v-260h-110v700zM390 360q53 0 86.5 33.5t33.5 86.5t-33.5 86.5t-86.5 33.5h-180v-240h180zM320 -80h95l-65 -140h-75z" />
    <glyph glyph-name="rcommaaccent" unicode="&#x157;" horiz-adv-x="360" 
d="M70 480h100v-65q16 20 37 37q18 14 45 26t63 12h25v-105q-7 1 -13 2t-12.5 2t-14.5 1q-26 0 -49.5 -10.5t-41.5 -30t-28.5 -46t-10.5 -58.5v-245h-100v480zM70 -80h95l-65 -140h-75z" />
    <glyph glyph-name="Rcaron" unicode="&#x158;" horiz-adv-x="690" 
d="M100 700h290q51 0 93 -17t72.5 -46.5t47.5 -69.5t17 -87q0 -59 -21 -97t-46 -61q-30 -27 -67 -42l159 -280h-125l-145 260h-165v-260h-110v700zM390 360q53 0 86.5 33.5t33.5 86.5t-33.5 86.5t-86.5 33.5h-180v-240h180zM195 930h90l70 -85l70 85h90l-115 -140h-90z" />
    <glyph glyph-name="rcaron" unicode="&#x159;" horiz-adv-x="360" 
d="M70 480h100v-65q16 20 37 37q18 14 45 26t63 12h25v-105q-7 1 -13 2t-12.5 2t-14.5 1q-26 0 -49.5 -10.5t-41.5 -30t-28.5 -46t-10.5 -58.5v-245h-100v480zM40 700h90l70 -85l70 85h90l-115 -140h-90z" />
    <glyph glyph-name="Sacute" unicode="&#x15a;" horiz-adv-x="570" 
d="M280 -10q-64 0 -111 16t-78 36q-36 23 -61 53l75 75q16 -22 42 -40q22 -15 55 -27.5t78 -12.5q34 0 60 8.5t44 23t27 33.5t9 40q0 29 -16 47.5t-42 31.5t-59 22t-68 19.5t-68 25t-59 37t-42 55.5t-16 82q0 39 16.5 74.5t47.5 62.5t75.5 42.5t100.5 15.5q54 0 95 -14
t69 -31q33 -20 56 -45l-75 -75q-16 18 -37 32q-18 12 -45.5 22.5t-62.5 10.5q-64 0 -97 -28.5t-33 -66.5q0 -29 16 -47.5t42 -31.5t59 -22t68 -19.5t68 -25t59 -37t42 -55.5t16 -82q0 -41 -17.5 -78.5t-49.5 -65.5t-78.5 -44.5t-104.5 -16.5zM320 930h105l-105 -140h-75z
" />
    <glyph glyph-name="sacute" unicode="&#x15b;" horiz-adv-x="435" 
d="M215 -10q-48 0 -83 14t-59 31q-28 19 -48 45l65 65q15 -19 34 -33q17 -12 39.5 -22t51.5 -10q42 0 63.5 18.5t21.5 41.5q0 20 -19 31.5t-47 20.5t-61.5 19t-61.5 26.5t-47 43t-19 69.5q0 28 12 53.5t34.5 44.5t55 30.5t73.5 11.5q43 0 75 -10.5t53 -22.5q25 -14 42 -32
l-65 -65q-12 11 -28 20q-14 8 -33.5 14t-43.5 6q-38 0 -56.5 -15.5t-18.5 -34.5q0 -20 19 -31.5t47 -20.5t61.5 -19t61.5 -26.5t47 -43.5t19 -69q0 -30 -12.5 -57t-36.5 -48t-58.5 -33t-77.5 -12zM255 700h105l-105 -140h-75z" />
    <glyph glyph-name="Scircumflex" unicode="&#x15c;" horiz-adv-x="570" 
d="M280 -10q-64 0 -111 16t-78 36q-36 23 -61 53l75 75q16 -22 42 -40q22 -15 55 -27.5t78 -12.5q34 0 60 8.5t44 23t27 33.5t9 40q0 29 -16 47.5t-42 31.5t-59 22t-68 19.5t-68 25t-59 37t-42 55.5t-16 82q0 39 16.5 74.5t47.5 62.5t75.5 42.5t100.5 15.5q54 0 95 -14
t69 -31q33 -20 56 -45l-75 -75q-16 18 -37 32q-18 12 -45.5 22.5t-62.5 10.5q-64 0 -97 -28.5t-33 -66.5q0 -29 16 -47.5t42 -31.5t59 -22t68 -19.5t68 -25t59 -37t42 -55.5t16 -82q0 -41 -17.5 -78.5t-49.5 -65.5t-78.5 -44.5t-104.5 -16.5zM240 930h90l115 -140h-90
l-70 85l-70 -85h-90z" />
    <glyph glyph-name="scircumflex" unicode="&#x15d;" horiz-adv-x="435" 
d="M215 -10q-48 0 -83 14t-59 31q-28 19 -48 45l65 65q15 -19 34 -33q17 -12 39.5 -22t51.5 -10q42 0 63.5 18.5t21.5 41.5q0 20 -19 31.5t-47 20.5t-61.5 19t-61.5 26.5t-47 43t-19 69.5q0 28 12 53.5t34.5 44.5t55 30.5t73.5 11.5q43 0 75 -10.5t53 -22.5q25 -14 42 -32
l-65 -65q-12 11 -28 20q-14 8 -33.5 14t-43.5 6q-38 0 -56.5 -15.5t-18.5 -34.5q0 -20 19 -31.5t47 -20.5t61.5 -19t61.5 -26.5t47 -43.5t19 -69q0 -30 -12.5 -57t-36.5 -48t-58.5 -33t-77.5 -12zM175 700h90l115 -140h-90l-70 85l-70 -85h-90z" />
    <glyph glyph-name="Scedilla" unicode="&#x15e;" horiz-adv-x="570" 
d="M270 -215q-23 0 -40.5 5t-29.5 12q-14 8 -25 18l25 45q9 -8 20 -13q9 -5 22 -8.5t28 -3.5q19 0 29.5 9.5t10.5 23.5q0 13 -10 22.5t-25 9.5q-8 0 -13.5 -1.5t-9.5 -3.5q-4 -3 -7 -5l-30 30l30 65q-55 5 -95 22.5t-67 35.5q-32 21 -53 47l75 75q16 -22 42 -40
q22 -15 55 -27.5t78 -12.5q34 0 60 8.5t44 23t27 33.5t9 40q0 29 -16 47.5t-42 31.5t-59 22t-68 19.5t-68 25t-59 37t-42 55.5t-16 82q0 39 16.5 74.5t47.5 62.5t75.5 42.5t100.5 15.5q54 0 95 -14t69 -31q33 -20 56 -45l-75 -75q-16 18 -37 32q-18 12 -45.5 22.5
t-62.5 10.5q-64 0 -97 -28.5t-33 -66.5q0 -29 16 -47.5t42 -31.5t59 -22t68 -19.5t68 -25t59 -37t42 -55.5t16 -82q0 -39 -15.5 -74t-44 -62t-69 -45t-91.5 -24l-20 -40q22 -2 40 -12q15 -8 27.5 -24t12.5 -44q0 -34 -25.5 -59.5t-74.5 -25.5z" />
    <glyph glyph-name="scedilla" unicode="&#x15f;" horiz-adv-x="435" 
d="M205 -215q-23 0 -40.5 5t-29.5 12q-14 8 -25 18l25 45q9 -8 20 -13q9 -5 22 -8.5t28 -3.5q19 0 29.5 9.5t10.5 23.5q0 13 -10 22.5t-25 9.5q-8 0 -13.5 -1.5t-9.5 -3.5q-4 -3 -7 -5l-30 30l30 65q-38 5 -66.5 20t-48.5 31q-23 18 -40 39l65 65q15 -19 34 -33
q17 -12 39.5 -22t51.5 -10q42 0 63.5 18.5t21.5 41.5q0 20 -19 31.5t-47 20.5t-61.5 19t-61.5 26.5t-47 43t-19 69.5q0 28 12 53.5t34.5 44.5t55 30.5t73.5 11.5q43 0 75 -10.5t53 -22.5q25 -14 42 -32l-65 -65q-12 11 -28 20q-14 8 -33.5 14t-43.5 6q-38 0 -56.5 -15.5
t-18.5 -34.5q0 -20 19 -31.5t47 -20.5t61.5 -19t61.5 -26.5t47 -43.5t19 -69q0 -30 -11 -56t-31 -45.5t-48.5 -32t-64.5 -16.5l-20 -40q22 -2 40 -12q15 -8 27.5 -24t12.5 -44q0 -34 -25.5 -59.5t-74.5 -25.5z" />
    <glyph glyph-name="Scaron" unicode="&#x160;" horiz-adv-x="570" 
d="M280 -10q-64 0 -111 16t-78 36q-36 23 -61 53l75 75q16 -22 42 -40q22 -15 55 -27.5t78 -12.5q34 0 60 8.5t44 23t27 33.5t9 40q0 29 -16 47.5t-42 31.5t-59 22t-68 19.5t-68 25t-59 37t-42 55.5t-16 82q0 39 16.5 74.5t47.5 62.5t75.5 42.5t100.5 15.5q54 0 95 -14
t69 -31q33 -20 56 -45l-75 -75q-16 18 -37 32q-18 12 -45.5 22.5t-62.5 10.5q-64 0 -97 -28.5t-33 -66.5q0 -29 16 -47.5t42 -31.5t59 -22t68 -19.5t68 -25t59 -37t42 -55.5t16 -82q0 -41 -17.5 -78.5t-49.5 -65.5t-78.5 -44.5t-104.5 -16.5zM125 930h90l70 -85l70 85h90
l-115 -140h-90z" />
    <glyph glyph-name="scaron" unicode="&#x161;" horiz-adv-x="435" 
d="M215 -10q-48 0 -83 14t-59 31q-28 19 -48 45l65 65q15 -19 34 -33q17 -12 39.5 -22t51.5 -10q42 0 63.5 18.5t21.5 41.5q0 20 -19 31.5t-47 20.5t-61.5 19t-61.5 26.5t-47 43t-19 69.5q0 28 12 53.5t34.5 44.5t55 30.5t73.5 11.5q43 0 75 -10.5t53 -22.5q25 -14 42 -32
l-65 -65q-12 11 -28 20q-14 8 -33.5 14t-43.5 6q-38 0 -56.5 -15.5t-18.5 -34.5q0 -20 19 -31.5t47 -20.5t61.5 -19t61.5 -26.5t47 -43.5t19 -69q0 -30 -12.5 -57t-36.5 -48t-58.5 -33t-77.5 -12zM60 700h90l70 -85l70 85h90l-115 -140h-90z" />
    <glyph glyph-name="uni0162" unicode="&#x162;" horiz-adv-x="570" 
d="M280 -215q-23 0 -40.5 5t-29.5 12q-14 8 -25 18l25 45q9 -8 20 -13q9 -5 22 -8.5t28 -3.5q19 0 29.5 9.5t10.5 23.5q0 13 -10 22.5t-25 9.5q-8 0 -13.5 -1.5t-9.5 -3.5q-4 -3 -7 -5l-30 30l35 75h-30v595h-210v105h530v-105h-210v-595h-15l-25 -50q22 -2 40 -12
q15 -8 27.5 -24t12.5 -44q0 -34 -25.5 -59.5t-74.5 -25.5z" />
    <glyph glyph-name="uni0163" unicode="&#x163;" horiz-adv-x="395" 
d="M230 -215q-23 0 -40.5 5t-29.5 12q-14 8 -25 18l25 45q9 -8 20 -13q9 -5 22 -8.5t28 -3.5q19 0 29.5 9.5t10.5 23.5q0 13 -10 22.5t-25 9.5q-8 0 -13.5 -1.5t-9.5 -3.5q-4 -3 -7 -5l-30 30l35 75q-26 6 -45 24q-17 16 -31 45.5t-14 80.5v235h-90v95h55q23 0 34 12.5
t11 42.5v105h90v-160h110v-95h-110v-225q0 -75 70 -75q11 0 21 2t18 5q9 4 16 8v-95q-11 -4 -23 -8q-11 -3 -24 -5t-28 -2l-20 -40q22 -2 40 -12q15 -8 27.5 -24t12.5 -44q0 -34 -25.5 -59.5t-74.5 -25.5z" />
    <glyph glyph-name="Tcaron" unicode="&#x164;" horiz-adv-x="570" 
d="M230 595h-210v105h530v-105h-210v-595h-110v595zM125 930h90l70 -85l70 85h90l-115 -140h-90z" />
    <glyph glyph-name="tcaron" unicode="&#x165;" horiz-adv-x="395" 
d="M270 -10q-72 0 -111 40.5t-39 119.5v235h-90v95h55q23 0 34 12.5t11 42.5v105h90v-160h110v-95h-110v-225q0 -75 70 -75q11 0 21 2t18 5q9 4 16 8v-95q-10 -4 -21 -8q-10 -3 -23.5 -5t-30.5 -2zM365 700h95l-65 -140h-75z" />
    <glyph glyph-name="Tbar" unicode="&#x166;" horiz-adv-x="570" 
d="M230 345h-150v95h150v155h-210v105h530v-105h-210v-155h150v-95h-150v-345h-110v345z" />
    <glyph glyph-name="tbar" unicode="&#x167;" horiz-adv-x="395" 
d="M270 -10q-72 0 -111 40.5t-39 119.5v65h-90v90h90v85h-90v90h55q23 0 34 12.5t11 42.5v105h90v-160h110v-90h-110v-85h110v-90h-110v-55q0 -75 70 -75q11 0 21 2t18 5q9 4 16 8v-95q-10 -4 -21 -8q-10 -3 -23.5 -5t-30.5 -2z" />
    <glyph glyph-name="uni0168" unicode="&#x168;" horiz-adv-x="770" 
d="M385 -10q-66 0 -120 21.5t-93 60t-60.5 91.5t-21.5 117v420h110v-420q0 -41 14 -76t39 -60.5t59 -39.5t73 -14q37 0 71 15t59 40.5t40 60.5t15 74v420h110v-420q0 -64 -21.5 -117t-60.5 -91.5t-93 -60t-120 -21.5zM220 790q0 72 27.5 103.5t72.5 31.5q24 0 42 -9.5
t32.5 -20.5t27.5 -20.5t28 -9.5q19 0 29.5 13t10.5 47h65q0 -72 -27.5 -103.5t-72.5 -31.5q-24 0 -42 9.5t-32.5 20.5t-27.5 20.5t-28 9.5q-19 0 -29.5 -13t-10.5 -47h-65v0z" />
    <glyph glyph-name="uni0169" unicode="&#x169;" 
d="M260 -10q-41 0 -76 14.5t-60.5 41.5t-39.5 66t-14 88v280h100v-280q0 -53 30.5 -84t79.5 -31q28 0 52 10t41 27.5t27 42.5t10 55v260h100v-480h-100v70q-16 -22 -38 -40q-19 -15 -46.5 -27.5t-65.5 -12.5zM125 560q0 72 27.5 103.5t72.5 31.5q24 0 42 -9.5t32.5 -20.5
t27.5 -20.5t28 -9.5q19 0 29.5 13t10.5 47h65q0 -72 -27.5 -103.5t-72.5 -31.5q-24 0 -42 9.5t-32.5 20.5t-27.5 20.5t-28 9.5q-19 0 -29.5 -13t-10.5 -47h-65v0z" />
    <glyph glyph-name="Umacron" unicode="&#x16a;" horiz-adv-x="770" 
d="M385 -10q-66 0 -120 21.5t-93 60t-60.5 91.5t-21.5 117v420h110v-420q0 -41 14 -76t39 -60.5t59 -39.5t73 -14q37 0 71 15t59 40.5t40 60.5t15 74v420h110v-420q0 -64 -21.5 -117t-60.5 -91.5t-93 -60t-120 -21.5zM235 895h300v-70h-300v70z" />
    <glyph glyph-name="umacron" unicode="&#x16b;" 
d="M260 -10q-41 0 -76 14.5t-60.5 41.5t-39.5 66t-14 88v280h100v-280q0 -53 30.5 -84t79.5 -31q28 0 52 10t41 27.5t27 42.5t10 55v260h100v-480h-100v70q-16 -22 -38 -40q-19 -15 -46.5 -27.5t-65.5 -12.5zM140 675h300v-70h-300v70z" />
    <glyph glyph-name="Ubreve" unicode="&#x16c;" horiz-adv-x="770" 
d="M385 -10q-66 0 -120 21.5t-93 60t-60.5 91.5t-21.5 117v420h110v-420q0 -41 14 -76t39 -60.5t59 -39.5t73 -14q37 0 71 15t59 40.5t40 60.5t15 74v420h110v-420q0 -64 -21.5 -117t-60.5 -91.5t-93 -60t-120 -21.5zM385 790q-32 0 -58.5 10.5t-46 29.5t-30 44.5
t-10.5 55.5h75q0 -30 20 -50t50 -20t50 20t20 50h75q0 -30 -10.5 -55.5t-30 -44.5t-46 -29.5t-58.5 -10.5z" />
    <glyph glyph-name="ubreve" unicode="&#x16d;" 
d="M260 -10q-41 0 -76 14.5t-60.5 41.5t-39.5 66t-14 88v280h100v-280q0 -53 30.5 -84t79.5 -31q28 0 52 10t41 27.5t27 42.5t10 55v260h100v-480h-100v70q-16 -22 -38 -40q-19 -15 -46.5 -27.5t-65.5 -12.5zM290 560q-32 0 -58.5 10.5t-46 29.5t-30 44.5t-10.5 55.5h75
q0 -30 20 -50t50 -20t50 20t20 50h75q0 -30 -10.5 -55.5t-30 -44.5t-46 -29.5t-58.5 -10.5z" />
    <glyph glyph-name="Uring" unicode="&#x16e;" horiz-adv-x="770" 
d="M385 -10q-66 0 -120 21.5t-93 60t-60.5 91.5t-21.5 117v420h110v-420q0 -41 14 -76t39 -60.5t59 -39.5t73 -14q37 0 71 15t59 40.5t40 60.5t15 74v420h110v-420q0 -64 -21.5 -117t-60.5 -91.5t-93 -60t-120 -21.5zM385 770q-23 0 -42 8t-33 21.5t-22 31.5t-8 39t8 39
t22 31.5t33 21.5t42 8q22 0 41.5 -8t33.5 -21.5t22 -31.5t8 -39t-8 -39t-22 -31.5t-33.5 -21.5t-41.5 -8zM385 825q19 0 32 13t13 32t-13 32t-32 13t-32 -13t-13 -32t13 -32t32 -13z" />
    <glyph glyph-name="uring" unicode="&#x16f;" 
d="M260 -10q-41 0 -76 14.5t-60.5 41.5t-39.5 66t-14 88v280h100v-280q0 -53 30.5 -84t79.5 -31q28 0 52 10t41 27.5t27 42.5t10 55v260h100v-480h-100v70q-16 -22 -38 -40q-19 -15 -46.5 -27.5t-65.5 -12.5zM290 540q-23 0 -42 8t-33 21.5t-22 31.5t-8 39t8 39t22 31.5
t33 21.5t42 8q22 0 41.5 -8t33.5 -21.5t22 -31.5t8 -39t-8 -39t-22 -31.5t-33.5 -21.5t-41.5 -8zM290 595q19 0 32 13t13 32t-13 32t-32 13t-32 -13t-13 -32t13 -32t32 -13z" />
    <glyph glyph-name="Uhungarumlaut" unicode="&#x170;" horiz-adv-x="770" 
d="M385 -10q-66 0 -120 21.5t-93 60t-60.5 91.5t-21.5 117v420h110v-420q0 -41 14 -76t39 -60.5t59 -39.5t73 -14q37 0 71 15t59 40.5t40 60.5t15 74v420h110v-420q0 -64 -21.5 -117t-60.5 -91.5t-93 -60t-120 -21.5zM335 930h105l-105 -140h-75zM510 930h105l-105 -140h-75
z" />
    <glyph glyph-name="uhungarumlaut" unicode="&#x171;" 
d="M260 -10q-41 0 -76 14.5t-60.5 41.5t-39.5 66t-14 88v280h100v-280q0 -53 30.5 -84t79.5 -31q28 0 52 10t41 27.5t27 42.5t10 55v260h100v-480h-100v70q-16 -22 -38 -40q-19 -15 -46.5 -27.5t-65.5 -12.5zM240 700h105l-105 -140h-75zM415 700h105l-105 -140h-75z" />
    <glyph glyph-name="Uogonek" unicode="&#x172;" horiz-adv-x="770" 
d="M492 -215q-45 0 -72.5 26.5t-27.5 68.5q0 37 18.5 66.5t44.5 50.5q-17 -4 -35 -5.5t-35 -1.5q-66 0 -120 21.5t-93 60t-60.5 91.5t-21.5 117v420h110v-420q0 -41 14 -76t39 -60.5t59 -39.5t73 -14q37 0 71 15t59 40.5t40 60.5t15 74v420h110v-420q0 -75 -29.5 -134
t-80.5 -99q-49 -39 -78.5 -74.5t-29.5 -75.5q0 -22 13 -34.5t37 -12.5q26 0 50 10v-60q-9 -4 -20 -8q-10 -3 -22.5 -5t-27.5 -2z" />
    <glyph glyph-name="uogonek" unicode="&#x173;" 
d="M440 -215q-45 0 -72.5 26.5t-27.5 68.5q0 34 23.5 67.5t61.5 52.5h-15v70q-16 -22 -38 -40q-19 -15 -46.5 -27.5t-65.5 -12.5q-41 0 -76 14.5t-60.5 41.5t-39.5 66t-14 88v280h100v-280q0 -53 30.5 -84t79.5 -31q28 0 52 10t41 27.5t27 42.5t10 55v260h100v-480
q-42 -19 -71 -47.5t-29 -58.5q0 -19 13 -31.5t37 -12.5q26 0 50 10v-60q-9 -4 -20 -8q-10 -3 -22.5 -5t-27.5 -2z" />
    <glyph glyph-name="Wcircumflex" unicode="&#x174;" horiz-adv-x="1050" 
d="M20 700h115l170 -525l165 525h110l165 -525l170 525h115l-230 -700h-110l-165 525l-165 -525h-110zM480 930h90l115 -140h-90l-70 85l-70 -85h-90z" />
    <glyph glyph-name="wcircumflex" unicode="&#x175;" horiz-adv-x="760" 
d="M10 480h110l110 -325l105 325h90l105 -325l110 325h110l-170 -480h-95l-105 320l-105 -320h-95zM335 700h90l115 -140h-90l-70 85l-70 -85h-90z" />
    <glyph glyph-name="Ycircumflex" unicode="&#x176;" horiz-adv-x="650" 
d="M270 250l-265 450h125l195 -340l195 340h125l-265 -450v-250h-110v250zM280 930h90l115 -140h-90l-70 85l-70 -85h-90z" />
    <glyph glyph-name="ycircumflex" unicode="&#x177;" horiz-adv-x="510" 
d="M115 -210q-17 0 -30.5 2t-23.5 5q-11 4 -21 8v95q7 -4 17 -8q8 -3 18.5 -5t24.5 -2q30 0 51.5 17.5t33.5 47.5l20 50l-195 480h110l135 -355l135 355h110l-210 -535q-30 -76 -72.5 -115.5t-102.5 -39.5zM210 700h90l115 -140h-90l-70 85l-70 -85h-90z" />
    <glyph glyph-name="Ydieresis" unicode="&#x178;" horiz-adv-x="650" 
d="M270 250l-265 450h125l195 -340l195 340h125l-265 -450v-250h-110v250zM225 790q-23 0 -41.5 17t-18.5 43t18.5 43t41.5 17t41.5 -17t18.5 -43t-18.5 -43t-41.5 -17zM425 790q-23 0 -41.5 17t-18.5 43t18.5 43t41.5 17t41.5 -17t18.5 -43t-18.5 -43t-41.5 -17z" />
    <glyph glyph-name="Zacute" unicode="&#x179;" horiz-adv-x="620" 
d="M45 105l390 490h-375v105h505v-105l-390 -490h400v-105h-530v105zM345 930h105l-105 -140h-75z" />
    <glyph glyph-name="zacute" unicode="&#x17a;" horiz-adv-x="485" 
d="M40 95l265 290h-255v95h385v-95l-265 -290h275v-95h-405v95zM275 700h105l-105 -140h-75z" />
    <glyph glyph-name="Zdotaccent" unicode="&#x17b;" horiz-adv-x="620" 
d="M45 105l390 490h-375v105h505v-105l-390 -490h400v-105h-530v105zM310 790q-23 0 -41.5 17t-18.5 43t18.5 43t41.5 17t41.5 -17t18.5 -43t-18.5 -43t-41.5 -17z" />
    <glyph glyph-name="zdotaccent" unicode="&#x17c;" horiz-adv-x="485" 
d="M40 95l265 290h-255v95h385v-95l-265 -290h275v-95h-405v95zM240 570q-23 0 -41.5 17t-18.5 43t18.5 43t41.5 17t41.5 -17t18.5 -43t-18.5 -43t-41.5 -17z" />
    <glyph glyph-name="Zcaron" unicode="&#x17d;" horiz-adv-x="620" 
d="M45 105l390 490h-375v105h505v-105l-390 -490h400v-105h-530v105zM150 930h90l70 -85l70 85h90l-115 -140h-90z" />
    <glyph glyph-name="zcaron" unicode="&#x17e;" horiz-adv-x="485" 
d="M40 95l265 290h-255v95h385v-95l-265 -290h275v-95h-405v95zM85 700h90l70 -85l70 85h90l-115 -140h-90z" />
    <glyph glyph-name="uni018F" unicode="&#x18f;" horiz-adv-x="795" 
d="M395 -10q-73 0 -136 26.5t-109.5 74.5t-73 114t-26.5 145v25h580q-4 51 -23.5 94t-52 74.5t-75.5 49t-94 17.5q-53 0 -93 -14t-67 -31q-32 -20 -55 -45l-70 70q31 34 73 60q36 23 89 41.5t123 18.5q77 0 142 -26.5t112.5 -74.5t74 -114t26.5 -145t-26.5 -145t-73 -114
t-109.5 -74.5t-136 -26.5zM395 90q45 0 84.5 16.5t69.5 43t48.5 60.5t22.5 70h-450q4 -36 22.5 -70t48.5 -60.5t69.5 -43t84.5 -16.5z" />
    <glyph glyph-name="florin" unicode="&#x192;" horiz-adv-x="385" 
d="M-10 -210q-15 0 -28 2t-22 5q-11 4 -20 8v90q8 -3 18 -5q18 -5 37 -5q38 0 55.5 15.5t24.5 49.5l70 370h-75v90h92l28 140q17 83 55 121.5t110 38.5q15 0 27.5 -2.5t22.5 -5.5q11 -4 20 -7v-90q-8 2 -18 5q-8 2 -18 3.5t-19 1.5q-38 0 -55.5 -15.5t-24.5 -49.5l-28 -140
h108v-90h-125l-70 -370q-16 -83 -54.5 -121.5t-110.5 -38.5z" />
    <glyph glyph-name="uni01A0" unicode="&#x1a0;" horiz-adv-x="850" 
d="M425 -10q-79 0 -146.5 28t-117 77t-78 114.5t-28.5 140.5t28.5 140.5t78 114.5t117 77t146.5 28q13 0 25 -1t21 -2q11 -1 19 -2q16 -2 34 -3q16 -1 35.5 -1.5t40.5 -0.5q30 0 45 13t15 32q0 13 -2.5 26.5t-5.5 24.5q-4 12 -7 24h65q6 -12 10 -26q4 -12 7 -28.5t3 -35.5
t-7 -35.5t-18 -28.5t-25.5 -19t-29.5 -7h-5q42 -29 75 -70q28 -36 51.5 -90.5t23.5 -129.5t-28.5 -140.5t-78 -114.5t-117 -77t-146.5 -28zM425 90q54 0 101.5 20t83 55.5t55.5 83t20 101.5t-20 101.5t-55.5 83t-83 55.5t-101.5 20t-101.5 -20t-83 -55.5t-55.5 -83
t-20 -101.5t20 -101.5t55.5 -83t83 -55.5t101.5 -20z" />
    <glyph glyph-name="uni01A1" unicode="&#x1a1;" 
d="M290 -10q-53 0 -98.5 19.5t-79 53t-53 79t-19.5 98.5q0 52 19.5 98t53 79.5t79 53t98.5 19.5q11 0 20 -1t16 -2q8 -1 14 -2q13 -2 26 -3q11 -1 24.5 -1.5t24.5 -0.5q30 0 45 13t15 32q0 13 -2.5 26.5t-5.5 24.5q-4 12 -7 24h65q6 -12 10 -26q4 -12 7 -28.5t3 -35.5
t-7 -35.5t-18 -28.5t-25.5 -19t-29.5 -7q20 -20 37 -47q14 -23 26 -56.5t12 -76.5q0 -53 -19.5 -98.5t-53 -79t-79.5 -53t-98 -19.5zM290 85q32 0 59.5 11.5t47.5 32t31.5 49t11.5 62.5t-11.5 62.5t-31.5 49t-47.5 32t-59.5 11.5t-59.5 -11.5t-47.5 -32t-31.5 -49
t-11.5 -62.5t11.5 -62.5t31.5 -49t47.5 -32t59.5 -11.5z" />
    <glyph glyph-name="uni01AF" unicode="&#x1af;" horiz-adv-x="805" 
d="M385 -10q-66 0 -120 21.5t-93 60t-60.5 91.5t-21.5 117v420h110v-420q0 -41 14 -76t39 -60.5t59 -39.5t73 -14q37 0 71 15t59 40.5t40 60.5t15 74v420h130q23 0 36.5 13t13.5 32q0 13 -2.5 26.5t-5.5 24.5q-4 12 -7 24h65q6 -12 10 -26q4 -12 7 -28.5t3 -35.5
q0 -42 -27.5 -68.5t-72.5 -26.5h-40v-355q0 -64 -21.5 -117t-60.5 -91.5t-93 -60t-120 -21.5z" />
    <glyph glyph-name="uni01B0" unicode="&#x1b0;" horiz-adv-x="645" 
d="M260 -10q-41 0 -76 14.5t-60.5 41.5t-39.5 66t-14 88v280h100v-280q0 -53 30.5 -84t79.5 -31q28 0 52 10t41 27.5t27 42.5t10 55v260h120q23 0 36.5 13t13.5 32q0 13 -2.5 26.5t-5.5 24.5q-4 12 -7 24h65q6 -12 10 -26q4 -12 7 -28.5t3 -35.5q0 -42 -27.5 -68.5
t-72.5 -26.5h-40v-415h-100v70q-16 -22 -38 -40q-19 -15 -46.5 -27.5t-65.5 -12.5z" />
    <glyph glyph-name="Gacute" unicode="&#x1f4;" horiz-adv-x="805" 
d="M425 -10q-79 0 -146.5 28t-117 77t-78 114.5t-28.5 140.5t28.5 140.5t78 114.5t117 77t146.5 28q72 0 125 -21t89 -47q41 -30 71 -67l-70 -70q-21 29 -53 52q-27 20 -67.5 36.5t-94.5 16.5t-101.5 -20t-83 -55.5t-55.5 -83t-20 -101.5t20 -101.5t55.5 -83t83 -55.5
t101.5 -20q47 0 82.5 11.5t59.5 25.5q28 17 48 38v105h-145v100h255v-245q-32 -38 -77 -68q-38 -26 -94 -46.5t-129 -20.5zM450 930h105l-105 -140h-75z" />
    <glyph glyph-name="gacute" unicode="&#x1f5;" 
d="M260 -210q-51 0 -89 15.5t-64 34.5q-30 22 -52 50l70 65q16 -20 36 -35q17 -14 42 -24.5t57 -10.5q68 0 109 41.5t41 113.5v45q-15 -21 -38 -38q-20 -14 -49 -25.5t-68 -11.5q-43 0 -82 18t-68.5 49.5t-47 75.5t-17.5 97q0 52 17.5 96.5t47 76t68.5 49.5t82 18
q39 0 68 -12t49 -26q23 -17 38 -37v65h100v-440q0 -54 -18.5 -100t-52 -79.5t-79.5 -52t-100 -18.5zM275 105q28 0 52.5 10.5t43 30t29 46t10.5 58.5t-10.5 58.5t-29 46t-43 30t-52.5 10.5t-52.5 -10.5t-43 -30t-29 -46t-10.5 -58.5t10.5 -58.5t29 -46t43 -30t52.5 -10.5z
M325 700h105l-105 -140h-75z" />
    <glyph glyph-name="Aringacute" unicode="&#x1fa;" horiz-adv-x="700" 
d="M285 680q-11 8 -20 19q-8 10 -14 25t-6 36t8 39t22 31.5t33 21.5t42 8q22 0 41.5 -8t33.5 -21.5t22 -31.5t8 -39t-6 -36t-14 -25q-9 -11 -20 -19l275 -680h-115l-70 180h-310l-70 -180h-115zM465 280l-115 290l-115 -290h230zM350 715q19 0 32 13t13 32t-13 32t-32 13
t-32 -13t-13 -32t13 -32t32 -13zM380 1000h100l-90 -125h-80z" />
    <glyph glyph-name="aringacute" unicode="&#x1fb;" horiz-adv-x="520" 
d="M195 -10q-36 0 -65.5 11.5t-50.5 30.5t-32.5 44.5t-11.5 53.5q0 60 38 99.5t102 50.5l175 30q0 38 -27.5 64t-72.5 26q-29 0 -51.5 -10.5t-39.5 -22.5q-19 -14 -34 -32l-65 65q20 25 48 45q24 17 59 31t83 14q45 0 82 -14t63 -39t40.5 -59t14.5 -73v-305h-100v70
q-15 -22 -38 -40q-20 -15 -49 -27.5t-68 -12.5zM215 75q28 0 52.5 10.5t43 29.5t29 44.5t10.5 55.5v15l-140 -25q-38 -7 -56.5 -24.5t-18.5 -40.5q0 -26 21 -45.5t59 -19.5zM305 830h100l-90 -115h-80zM275 500q-23 0 -42 8t-33 21.5t-22 31.5t-8 39t8 39t22 31.5t33 21.5
t42 8q22 0 41.5 -8t33.5 -21.5t22 -31.5t8 -39t-8 -39t-22 -31.5t-33.5 -21.5t-41.5 -8zM275 555q19 0 32 13t13 32t-13 32t-32 13t-32 -13t-13 -32t13 -32t32 -13z" />
    <glyph glyph-name="AEacute" unicode="&#x1fc;" horiz-adv-x="975" 
d="M365 700h555v-105h-345v-180h265v-105h-265v-205h355v-105h-465v190h-265l-105 -190h-120zM465 290v305h-40l-170 -305h210zM580 930h105l-105 -140h-75z" />
    <glyph glyph-name="aeacute" unicode="&#x1fd;" horiz-adv-x="860" 
d="M215 -10q-43 0 -76.5 11.5t-56.5 31.5t-35 47.5t-12 59.5q0 30 13 57t39.5 48t65.5 33t92 12h105q0 53 -27.5 81.5t-72.5 28.5q-29 0 -51.5 -10.5t-39.5 -22.5q-19 -14 -34 -32l-65 65q20 25 48 45q24 17 59 31t83 14q42 0 71.5 -13.5t49.5 -29.5q23 -18 39 -42
q19 24 45 42q23 16 56.5 29.5t78.5 13.5q49 0 91 -17.5t73 -49t48.5 -74.5t17.5 -94q0 -11 -1 -20t-2 -16q-1 -8 -2 -14h-360q4 -24 16.5 -46t31.5 -38.5t44 -26t53 -9.5q30 0 54.5 10t42.5 22q21 14 38 33l60 -70q-20 -26 -49 -45q-25 -17 -62.5 -31t-88.5 -14
q-49 0 -85.5 16t-60.5 36q-29 23 -49 53q-19 -30 -46 -53q-23 -20 -57.5 -36t-81.5 -16zM215 75q28 0 52.5 10.5t43 29t29 43t10.5 52.5h-105q-60 0 -85 -20t-25 -50q0 -26 21 -45.5t59 -19.5zM715 290q-11 49 -43.5 79.5t-81.5 30.5q-53 0 -86.5 -30.5t-48.5 -79.5h260z
M445 700h105l-105 -140h-75z" />
    <glyph glyph-name="Oslashacute" unicode="&#x1fe;" horiz-adv-x="850" 
d="M40 40l90 90q-21 26 -38 59q-14 29 -25.5 69.5t-11.5 91.5q0 75 28.5 140.5t78 114.5t117 77t146.5 28q51 0 92.5 -11t70.5 -24q34 -16 62 -35l90 90l70 -70l-90 -90q20 -26 37 -59q14 -29 26 -69.5t12 -91.5q0 -75 -28.5 -140.5t-78 -114.5t-117 -77t-146.5 -28
q-51 0 -92.5 10.5t-70.5 24.5q-34 15 -62 35l-90 -90zM575 565q-19 12 -43 22q-20 8 -47.5 15.5t-59.5 7.5q-54 0 -101.5 -20t-83 -55.5t-55.5 -83t-20 -101.5q0 -34 7 -60.5t15 -45.5q10 -22 23 -39zM425 90q54 0 101.5 20t83 55.5t55.5 83t20 101.5q0 34 -7.5 60.5
t-15.5 45.5q-10 22 -22 39l-365 -360q19 -13 43 -23q20 -8 47.5 -15t59.5 -7zM470 930h105l-105 -140h-75z" />
    <glyph glyph-name="oslashacute" unicode="&#x1ff;" 
d="M30 25l60 65q-14 18 -25 41q-10 20 -17.5 47.5t-7.5 61.5q0 52 19.5 98t53 79.5t79 53t98.5 19.5q32 0 58 -7.5t44 -15.5q21 -10 38 -22l60 65l60 -55l-60 -65q14 -18 25 -41q9 -20 17 -47.5t8 -61.5q0 -53 -19.5 -98.5t-53 -79t-79.5 -53t-98 -19.5q-32 0 -58 7t-44 15
q-21 10 -38 23l-60 -65zM365 375q-10 6 -21 10q-10 4 -23.5 7t-30.5 3q-30 0 -57.5 -11t-48 -31t-32.5 -48.5t-12 -64.5q0 -19 3 -33t7 -23q4 -11 10 -19zM290 85q30 0 57.5 11t48 31t32.5 48.5t12 64.5q0 19 -3 32.5t-7 23.5q-4 11 -10 19l-205 -210q10 -6 21 -10
q10 -4 23.5 -7t30.5 -3zM325 700h105l-105 -140h-75z" />
    <glyph glyph-name="Scommaaccent" unicode="&#x218;" horiz-adv-x="570" 
d="M280 -10q-64 0 -111 16t-78 36q-36 23 -61 53l75 75q16 -22 42 -40q22 -15 55 -27.5t78 -12.5q34 0 60 8.5t44 23t27 33.5t9 40q0 29 -16 47.5t-42 31.5t-59 22t-68 19.5t-68 25t-59 37t-42 55.5t-16 82q0 39 16.5 74.5t47.5 62.5t75.5 42.5t100.5 15.5q54 0 95 -14
t69 -31q33 -20 56 -45l-75 -75q-16 18 -37 32q-18 12 -45.5 22.5t-62.5 10.5q-64 0 -97 -28.5t-33 -66.5q0 -29 16 -47.5t42 -31.5t59 -22t68 -19.5t68 -25t59 -37t42 -55.5t16 -82q0 -41 -17.5 -78.5t-49.5 -65.5t-78.5 -44.5t-104.5 -16.5zM240 -80h95l-65 -140h-75z" />
    <glyph glyph-name="scommaaccent" unicode="&#x219;" horiz-adv-x="435" 
d="M215 -10q-48 0 -83 14t-59 31q-28 19 -48 45l65 65q15 -19 34 -33q17 -12 39.5 -22t51.5 -10q42 0 63.5 18.5t21.5 41.5q0 20 -19 31.5t-47 20.5t-61.5 19t-61.5 26.5t-47 43t-19 69.5q0 28 12 53.5t34.5 44.5t55 30.5t73.5 11.5q43 0 75 -10.5t53 -22.5q25 -14 42 -32
l-65 -65q-12 11 -28 20q-14 8 -33.5 14t-43.5 6q-38 0 -56.5 -15.5t-18.5 -34.5q0 -20 19 -31.5t47 -20.5t61.5 -19t61.5 -26.5t47 -43.5t19 -69q0 -30 -12.5 -57t-36.5 -48t-58.5 -33t-77.5 -12zM170 -80h95l-65 -140h-75z" />
    <glyph glyph-name="uni021A" unicode="&#x21a;" horiz-adv-x="570" 
d="M230 595h-210v105h530v-105h-210v-595h-110v595zM240 -80h95l-65 -140h-75z" />
    <glyph glyph-name="uni021B" unicode="&#x21b;" horiz-adv-x="395" 
d="M270 -10q-72 0 -111 40.5t-39 119.5v235h-90v95h55q23 0 34 12.5t11 42.5v105h90v-160h110v-95h-110v-225q0 -75 70 -75q11 0 21 2t18 5q9 4 16 8v-95q-10 -4 -21 -8q-10 -3 -23.5 -5t-30.5 -2zM190 -80h95l-65 -140h-75z" />
    <glyph glyph-name="uni0232" unicode="&#x232;" horiz-adv-x="650" 
d="M270 250l-265 450h125l195 -340l195 340h125l-265 -450v-250h-110v250zM175 895h300v-70h-300v70z" />
    <glyph glyph-name="uni0233" unicode="&#x233;" horiz-adv-x="510" 
d="M115 -210q-17 0 -30.5 2t-23.5 5q-11 4 -21 8v95q7 -4 17 -8q8 -3 18.5 -5t24.5 -2q30 0 51.5 17.5t33.5 47.5l20 50l-195 480h110l135 -355l135 355h110l-210 -535q-30 -76 -72.5 -115.5t-102.5 -39.5zM105 675h300v-70h-300v70z" />
    <glyph glyph-name="uni0244" unicode="&#x244;" horiz-adv-x="780" 
d="M390 -10q-64 0 -116.5 20.5t-90 58.5t-58 91.5t-20.5 119.5v85h-95v100h95v235h110v-235h350v235h110v-235h95v-100h-95v-85q0 -66 -20.5 -119.5t-58 -91.5t-90 -58.5t-116.5 -20.5zM390 90q37 0 69.5 13.5t55.5 38.5t36.5 60t13.5 78v85h-350v-85q0 -43 13.5 -78
t36.5 -60t55 -38.5t70 -13.5z" />
    <glyph glyph-name="uni0259" unicode="&#x259;" horiz-adv-x="560" 
d="M275 -10q-51 0 -94 17.5t-74.5 49t-49 74.5t-17.5 94q0 11 0.5 20t1.5 16q1 8 3 14h370q-4 24 -16.5 46t-32 38.5t-45.5 26t-56 9.5q-32 0 -58 -10.5t-44 -22.5q-21 -14 -38 -32l-60 70q20 25 50 45q26 17 64 31t91 14q52 0 98 -19.5t79.5 -53t53 -79.5t19.5 -98
q0 -53 -19.5 -98.5t-52.5 -79t-77.5 -53t-95.5 -19.5zM275 80q57 0 91 30.5t49 79.5h-270q11 -49 44 -79.5t86 -30.5z" />
    <glyph glyph-name="uni0289" unicode="&#x289;" horiz-adv-x="610" 
d="M275 -10q-39 0 -73 14.5t-59 41.5t-39 66t-14 88v45h-70v85h70v150h100v-150h230v150h100v-150h70v-85h-70v-245h-100v70q-16 -22 -37 -40q-18 -15 -45.5 -27.5t-62.5 -12.5zM295 85q26 0 49 10t40 27.5t26.5 42.5t9.5 55v25h-230v-45q0 -53 30 -84t75 -31z" />
    <glyph glyph-name="uni02BC" unicode="&#x2bc;" horiz-adv-x="200" 
d="M75 700h95l-65 -140h-75z" />
    <glyph glyph-name="circumflex" unicode="&#x2c6;" horiz-adv-x="380" 
d="M145 700h90l115 -140h-90l-70 85l-70 -85h-90z" />
    <glyph glyph-name="caron" unicode="&#x2c7;" horiz-adv-x="380" 
d="M30 700h90l70 -85l70 85h90l-115 -140h-90z" />
    <glyph glyph-name="breve" unicode="&#x2d8;" horiz-adv-x="350" 
d="M175 560q-32 0 -58.5 10.5t-46 29.5t-30 44.5t-10.5 55.5h75q0 -30 20 -50t50 -20t50 20t20 50h75q0 -30 -10.5 -55.5t-30 -44.5t-46 -29.5t-58.5 -10.5z" />
    <glyph glyph-name="dotaccent" unicode="&#x2d9;" horiz-adv-x="180" 
d="M90 570q-23 0 -41.5 17t-18.5 43t18.5 43t41.5 17t41.5 -17t18.5 -43t-18.5 -43t-41.5 -17z" />
    <glyph glyph-name="ring" unicode="&#x2da;" horiz-adv-x="270" 
d="M135 500q-23 0 -42 8t-33 21.5t-22 31.5t-8 39t8 39t22 31.5t33 21.5t42 8q22 0 41.5 -8t33.5 -21.5t22 -31.5t8 -39t-8 -39t-22 -31.5t-33.5 -21.5t-41.5 -8zM135 555q19 0 32 13t13 32t-13 32t-32 13t-32 -13t-13 -32t13 -32t32 -13z" />
    <glyph glyph-name="ogonek" unicode="&#x2db;" horiz-adv-x="230" 
d="M130 -215q-45 0 -72.5 26.5t-27.5 68.5q0 34 23.5 67.5t61.5 52.5h85q-42 -19 -71 -47.5t-29 -58.5q0 -19 13 -31.5t37 -12.5q26 0 50 10v-60q-9 -4 -20 -8q-10 -3 -22.5 -5t-27.5 -2z" />
    <glyph glyph-name="tilde" unicode="&#x2dc;" horiz-adv-x="395" 
d="M30 565q0 72 27.5 103.5t72.5 31.5q24 0 42 -9.5t32.5 -20.5t27.5 -20.5t28 -9.5q19 0 29.5 13t10.5 47h65q0 -72 -27.5 -103.5t-72.5 -31.5q-24 0 -42 9.5t-32.5 20.5t-27.5 20.5t-28 9.5q-19 0 -29.5 -13t-10.5 -47h-65v0z" />
    <glyph glyph-name="hungarumlaut" unicode="&#x2dd;" horiz-adv-x="415" 
d="M105 700h105l-105 -140h-75zM280 700h105l-105 -140h-75z" />
    <glyph glyph-name="acutecomb" unicode="&#x301;" horiz-adv-x="0" 
d="M-350 870h105l-105 -140h-75z" />
    <glyph glyph-name="uni0302" unicode="&#x302;" horiz-adv-x="0" 
d="M-430 870h90l115 -140h-90l-70 85l-70 -85h-90z" />
    <glyph glyph-name="uni0304" unicode="&#x304;" horiz-adv-x="0" 
d="M-530 835h300v-70h-300v70z" />
    <glyph glyph-name="uni0306" unicode="&#x306;" horiz-adv-x="0" 
d="M-380 720q-32 0 -58.5 10.5t-46 29.5t-30 44.5t-10.5 55.5h75q0 -30 20 -50t50 -20t50 20t20 50h75q0 -30 -10.5 -55.5t-30 -44.5t-46 -29.5t-58.5 -10.5z" />
    <glyph glyph-name="uni0307" unicode="&#x307;" horiz-adv-x="0" 
d="M-380 735q-23 0 -41.5 17t-18.5 43t18.5 43t41.5 17t41.5 -17t18.5 -43t-18.5 -43t-41.5 -17z" />
    <glyph glyph-name="uni0308" unicode="&#x308;" horiz-adv-x="0" 
d="M-485 735q-23 0 -41.5 17t-18.5 43t18.5 43t41.5 17t41.5 -17t18.5 -43t-18.5 -43t-41.5 -17zM-285 735q-23 0 -41.5 17t-18.5 43t18.5 43t41.5 17t41.5 -17t18.5 -43t-18.5 -43t-41.5 -17z" />
    <glyph glyph-name="uni0309" unicode="&#x309;" horiz-adv-x="230" 
d="M105 550q7 11 12 24q5 11 9 24.5t4 27.5q0 18 -13.5 31t-36.5 13q-10 0 -18.5 -1.5t-15.5 -3.5q-8 -3 -16 -5v60q9 3 20 7q9 3 22 5.5t28 2.5q45 0 72.5 -26.5t27.5 -68.5q0 -19 -5 -35.5t-10 -28.5q-7 -14 -15 -26h-65v0z" />
    <glyph glyph-name="uni030A" unicode="&#x30a;" horiz-adv-x="0" 
d="M-380 730q-23 0 -42 8t-33 21.5t-22 31.5t-8 39t8 39t22 31.5t33 21.5t42 8q22 0 41.5 -8t33.5 -21.5t22 -31.5t8 -39t-8 -39t-22 -31.5t-33.5 -21.5t-41.5 -8zM-380 785q19 0 32 13t13 32t-13 32t-32 13t-32 -13t-13 -32t13 -32t32 -13z" />
    <glyph glyph-name="uni030C" unicode="&#x30c;" horiz-adv-x="0" 
d="M-540 870h90l70 -85l70 85h90l-115 -140h-90z" />
    <glyph glyph-name="uni031B" unicode="&#x31b;" horiz-adv-x="200" 
d="M30 480h20q23 0 36.5 13t13.5 32q0 13 -2.5 26.5t-5.5 24.5q-4 12 -7 24h65q6 -12 10 -26q4 -12 7 -28.5t3 -35.5q0 -42 -27.5 -68.5t-72.5 -26.5h-40v65z" />
    <glyph glyph-name="uni0323" unicode="&#x323;" horiz-adv-x="180" 
d="M90 -200q-23 0 -41.5 17t-18.5 43t18.5 43t41.5 17t41.5 -17t18.5 -43t-18.5 -43t-41.5 -17z" />
    <glyph glyph-name="uni0326" unicode="&#x326;" horiz-adv-x="200" 
d="M75 -80h95l-65 -140h-75z" />
    <glyph glyph-name="Alphatonos" unicode="&#x386;" horiz-adv-x="700" 
d="M290 700h120l280 -700h-115l-70 180h-310l-70 -180h-115zM465 280l-115 290l-115 -290h230zM120 700h105l-105 -140h-75z" />
    <glyph glyph-name="Epsilontonos" unicode="&#x388;" horiz-adv-x="665" 
d="M115 700h495v-105h-385v-180h305v-105h-305v-205h395v-105h-505v700zM-15 700h105l-105 -140h-75z" />
    <glyph glyph-name="Etatonos" unicode="&#x389;" horiz-adv-x="780" 
d="M115 700h110v-295h345v295h110v-700h-110v305h-345v-305h-110v700zM-15 700h105l-105 -140h-75z" />
    <glyph glyph-name="Iotatonos" unicode="&#x38a;" horiz-adv-x="325" 
d="M115 700h110v-700h-110v700zM-15 700h105l-105 -140h-75z" />
    <glyph glyph-name="Omicrontonos" unicode="&#x38c;" horiz-adv-x="861" 
d="M436 -10q-79 0 -146.5 28t-117 77t-78 114.5t-28.5 140.5t28.5 140.5t78 114.5t117 77t146.5 28t146.5 -28t117 -77t78 -114.5t28.5 -140.5t-28.5 -140.5t-78 -114.5t-117 -77t-146.5 -28zM436 90q54 0 101.5 20t83 55.5t55.5 83t20 101.5t-20 101.5t-55.5 83t-83 55.5
t-101.5 20t-101.5 -20t-83 -55.5t-55.5 -83t-20 -101.5t20 -101.5t55.5 -83t83 -55.5t101.5 -20zM35 700h105l-105 -140h-75z" />
    <glyph glyph-name="Upsilontonos" unicode="&#x38e;" horiz-adv-x="730" 
d="M350 250l-265 450h125l195 -340l195 340h125l-265 -450v-250h-110v250zM-30 700h105l-105 -140h-75z" />
    <glyph glyph-name="Omegatonos" unicode="&#x38f;" horiz-adv-x="860" 
d="M90 100h120q-39 27 -70 66q-26 33 -48 81.5t-22 112.5q0 73 27.5 137t76 111t115.5 74.5t146 27.5t145.5 -27.5t115.5 -74.5t76.5 -111t27.5 -137q0 -64 -22 -112.5t-48 -81.5q-31 -39 -70 -66h120v-100h-275v95q37 17 71 41.5t59 56t40 71t15 86.5q0 54 -19.5 101
t-53.5 81t-81 53.5t-101 19.5t-101 -19.5t-81 -53.5t-53.5 -81t-19.5 -101q0 -47 15 -86.5t40 -71t58.5 -56t71.5 -41.5v-95h-275v100zM35 700h105l-105 -140h-75z" />
    <glyph glyph-name="iotadieresistonos" unicode="&#x390;" horiz-adv-x="305" 
d="M10 570q-23 0 -41.5 17t-18.5 43t18.5 43t41.5 17t41.5 -17t18.5 -43t-18.5 -43t-41.5 -17zM125 700h90l-100 -140h-65zM250 570q-23 0 -41.5 17t-18.5 43t18.5 43t41.5 17t41.5 -17t18.5 -43t-18.5 -43t-41.5 -17zM220 -10q-68 0 -106.5 40t-38.5 115v335h100v-325
q0 -34 17.5 -52t47.5 -18q18 0 34 7l16 8v-95q-9 -4 -20 -8q-10 -3 -22.5 -5t-27.5 -2z" />
    <glyph glyph-name="Alpha" unicode="&#x391;" horiz-adv-x="700" 
d="M290 700h120l280 -700h-115l-70 180h-310l-70 -180h-115zM465 280l-115 290l-115 -290h230z" />
    <glyph glyph-name="Beta" unicode="&#x392;" horiz-adv-x="680" 
d="M100 700h280q47 0 85.5 -15t66.5 -40t43 -59t15 -71q0 -40 -13.5 -66t-29.5 -43q-18 -19 -42 -31q34 -14 60 -38q23 -20 41.5 -52.5t18.5 -79.5q0 -41 -17 -78.5t-47.5 -65.5t-72.5 -44.5t-93 -16.5h-295v700zM395 95q53 0 86.5 33t33.5 82t-33.5 82t-86.5 33h-185v-230
h185zM380 415q45 0 72.5 26.5t27.5 68.5t-27.5 68.5t-72.5 26.5h-170v-190h170z" />
    <glyph glyph-name="Gamma" unicode="&#x393;" horiz-adv-x="570" 
d="M100 700h450v-105h-340v-595h-110v700z" />
    <glyph glyph-name="uni0394" unicode="&#x394;" horiz-adv-x="690" 
d="M285 700h120l285 -700h-690zM535 105l-190 465l-190 -465h380z" />
    <glyph glyph-name="Epsilon" unicode="&#x395;" horiz-adv-x="650" 
d="M100 700h495v-105h-385v-180h305v-105h-305v-205h395v-105h-505v700z" />
    <glyph glyph-name="Zeta" unicode="&#x396;" horiz-adv-x="620" 
d="M45 105l390 490h-375v105h505v-105l-390 -490h400v-105h-530v105z" />
    <glyph glyph-name="Eta" unicode="&#x397;" horiz-adv-x="765" 
d="M100 700h110v-295h345v295h110v-700h-110v305h-345v-305h-110v700z" />
    <glyph glyph-name="Theta" unicode="&#x398;" horiz-adv-x="850" 
d="M425 -10q-79 0 -146.5 28t-117 77t-78 114.5t-28.5 140.5t28.5 140.5t78 114.5t117 77t146.5 28t146.5 -28t117 -77t78 -114.5t28.5 -140.5t-28.5 -140.5t-78 -114.5t-117 -77t-146.5 -28zM425 90q54 0 101.5 20t83 55.5t55.5 83t20 101.5t-20 101.5t-55.5 83t-83 55.5
t-101.5 20t-101.5 -20t-83 -55.5t-55.5 -83t-20 -101.5t20 -101.5t55.5 -83t83 -55.5t101.5 -20zM240 400h370v-100h-370v100z" />
    <glyph glyph-name="Iota" unicode="&#x399;" horiz-adv-x="310" 
d="M100 700h110v-700h-110v700z" />
    <glyph glyph-name="Kappa" unicode="&#x39a;" horiz-adv-x="685" 
d="M100 700h110v-340l315 340h140l-270 -290l290 -410h-135l-230 330l-110 -120v-210h-110v700z" />
    <glyph glyph-name="Lambda" unicode="&#x39b;" horiz-adv-x="700" 
d="M290 700h120l280 -700h-115l-225 570l-225 -570h-115z" />
    <glyph glyph-name="Mu" unicode="&#x39c;" horiz-adv-x="930" 
d="M100 700h100l265 -340l265 340h100v-700h-110v515l-255 -325l-255 325v-515h-110v700z" />
    <glyph glyph-name="Nu" unicode="&#x39d;" horiz-adv-x="795" 
d="M100 700h100l385 -515v515h110v-700h-100l-385 515v-515h-110v700z" />
    <glyph glyph-name="Xi" unicode="&#x39e;" horiz-adv-x="680" 
d="M60 105h560v-105h-560v105zM140 415h400v-105h-400v105zM75 700h530v-105h-530v105z" />
    <glyph glyph-name="Omicron" unicode="&#x39f;" horiz-adv-x="850" 
d="M425 -10q-79 0 -146.5 28t-117 77t-78 114.5t-28.5 140.5t28.5 140.5t78 114.5t117 77t146.5 28t146.5 -28t117 -77t78 -114.5t28.5 -140.5t-28.5 -140.5t-78 -114.5t-117 -77t-146.5 -28zM425 90q54 0 101.5 20t83 55.5t55.5 83t20 101.5t-20 101.5t-55.5 83t-83 55.5
t-101.5 20t-101.5 -20t-83 -55.5t-55.5 -83t-20 -101.5t20 -101.5t55.5 -83t83 -55.5t101.5 -20z" />
    <glyph glyph-name="Pi" unicode="&#x3a0;" horiz-adv-x="765" 
d="M100 700h565v-700h-110v595h-345v-595h-110v700z" />
    <glyph glyph-name="Rho" unicode="&#x3a1;" horiz-adv-x="660" 
d="M100 700h280q51 0 94 -17.5t74.5 -48t49 -71.5t17.5 -88t-17.5 -88t-49 -71.5t-74.5 -48t-94 -17.5h-170v-250h-110v700zM380 350q26 0 49 9.5t40 26.5t26.5 40t9.5 49t-9.5 49t-26.5 40t-40 26.5t-49 9.5h-170v-250h170z" />
    <glyph glyph-name="Sigma" unicode="&#x3a3;" horiz-adv-x="605" 
d="M60 90l215 275l-215 245v90h505v-105h-365l205 -230l-205 -260h365v-105h-505v90z" />
    <glyph glyph-name="Tau" unicode="&#x3a4;" horiz-adv-x="570" 
d="M230 595h-210v105h530v-105h-210v-595h-110v595z" />
    <glyph glyph-name="Upsilon" unicode="&#x3a5;" horiz-adv-x="650" 
d="M270 250l-265 450h125l195 -340l195 340h125l-265 -450v-250h-110v250z" />
    <glyph glyph-name="Phi" unicode="&#x3a6;" horiz-adv-x="860" 
d="M375 30q-71 4 -131 30t-103 69t-67 100.5t-24 125.5q0 67 24 125t67 101t103 69t131 30v75h110v-75q71 -4 131 -30t103 -69t67 -101t24 -125q0 -68 -24 -125.5t-67 -100.5t-103 -69t-131 -30v-80h-110v80zM375 575q-47 -2 -86.5 -19t-68 -46t-44.5 -68.5t-16 -86.5
t16 -86.5t44.5 -68.5t68 -46t86.5 -19v440zM485 135q47 2 86.5 19t68 46t44.5 68.5t16 86.5t-16 86.5t-44.5 68.5t-68 46t-86.5 19v-440z" />
    <glyph glyph-name="Chi" unicode="&#x3a7;" horiz-adv-x="660" 
d="M260 365l-230 335h130l170 -255l170 255h130l-230 -335l250 -365h-130l-190 285l-190 -285h-130z" />
    <glyph glyph-name="Psi" unicode="&#x3a8;" horiz-adv-x="840" 
d="M365 200q-139 7 -217 88.5t-78 231.5v180h110v-180q0 -106 49 -158.5t136 -56.5v395h110v-395q87 4 136 56.5t49 158.5v180h110v-180q0 -150 -78 -231.5t-217 -88.5v-200h-110v200z" />
    <glyph glyph-name="uni03A9" unicode="&#x3a9;" horiz-adv-x="850" 
d="M80 100h120q-39 27 -70 66q-26 33 -48 81.5t-22 112.5q0 73 27.5 137t76 111t115.5 74.5t146 27.5t145.5 -27.5t115.5 -74.5t76.5 -111t27.5 -137q0 -64 -22 -112.5t-48 -81.5q-31 -39 -70 -66h120v-100h-275v95q37 17 71 41.5t59 56t40 71t15 86.5q0 54 -19.5 101
t-53.5 81t-81 53.5t-101 19.5t-101 -19.5t-81 -53.5t-53.5 -81t-19.5 -101q0 -47 15 -86.5t40 -71t58.5 -56t71.5 -41.5v-95h-275v100z" />
    <glyph glyph-name="Iotadieresis" unicode="&#x3aa;" horiz-adv-x="310" 
d="M55 790q-23 0 -41.5 17t-18.5 43t18.5 43t41.5 17t41.5 -17t18.5 -43t-18.5 -43t-41.5 -17zM255 790q-23 0 -41.5 17t-18.5 43t18.5 43t41.5 17t41.5 -17t18.5 -43t-18.5 -43t-41.5 -17zM100 700h110v-700h-110v700z" />
    <glyph glyph-name="Upsilondieresis" unicode="&#x3ab;" horiz-adv-x="650" 
d="M270 250l-265 450h125l195 -340l195 340h125l-265 -450v-250h-110v250zM225 790q-23 0 -41.5 17t-18.5 43t18.5 43t41.5 17t41.5 -17t18.5 -43t-18.5 -43t-41.5 -17zM425 790q-23 0 -41.5 17t-18.5 43t18.5 43t41.5 17t41.5 -17t18.5 -43t-18.5 -43t-41.5 -17z" />
    <glyph glyph-name="alphatonos" unicode="&#x3ac;" horiz-adv-x="620" 
d="M265 -10q-45 0 -86 18.5t-71.5 52t-49 79.5t-18.5 100t18.5 100t49 79.5t71.5 52t86 18.5q43 0 74.5 -12.5t51.5 -27.5q24 -18 39 -40v70h100v-355q0 -40 40 -40q10 0 18 2q4 1 7 3v-90q-5 -3 -11 -5q-13 -5 -34 -5q-36 0 -58 12.5t-35 27.5q-15 18 -22 40
q-17 -22 -42 -40q-21 -15 -53 -27.5t-75 -12.5zM285 85q30 0 56.5 11.5t46 32t31 49t11.5 62.5t-11.5 62.5t-31 49t-46 32t-56.5 11.5t-56.5 -11.5t-46 -32t-31 -49t-11.5 -62.5t11.5 -62.5t31 -49t46 -32t56.5 -11.5zM325 700h105l-105 -140h-75z" />
    <glyph glyph-name="epsilontonos" unicode="&#x3ad;" horiz-adv-x="450" 
d="M245 -10q-51 0 -89 12t-64 32.5t-39 46.5t-13 54q0 34 14.5 55.5t32.5 35.5q21 15 48 24q-22 8 -40 22q-15 12 -27.5 32.5t-12.5 50.5q0 26 12 50.5t36 43t59.5 30t82.5 11.5q43 0 76 -10t55 -21q26 -13 44 -30l-65 -65q-14 10 -31 18q-14 7 -34.5 12.5t-44.5 5.5
q-45 0 -65 -16t-20 -39q0 -19 20 -34.5t65 -15.5h70v-90h-70q-53 0 -76.5 -18.5t-23.5 -41.5q0 -26 23.5 -45.5t76.5 -19.5q32 0 57 9.5t42 20.5q20 13 36 30l65 -65q-20 -25 -49 -43q-25 -16 -62.5 -29t-88.5 -13zM265 700h105l-105 -140h-75z" />
    <glyph glyph-name="etatonos" unicode="&#x3ae;" 
d="M70 480h100v-70q15 22 37 40q19 15 47 27.5t66 12.5q41 0 76 -14.5t60.5 -41.5t39.5 -66t14 -88v-280h-100v280q0 53 -30.5 84t-79.5 31q-28 0 -52 -10t-41 -27.5t-27 -42.5t-10 -55v-260h-100v480zM330 700h105l-105 -140h-75z" />
    <glyph glyph-name="iotatonos" unicode="&#x3af;" horiz-adv-x="295" 
d="M215 -10q-68 0 -106.5 40t-38.5 115v335h100v-325q0 -34 17.5 -52t47.5 -18q18 0 34 7l16 8v-95q-9 -4 -20 -8q-10 -3 -22.5 -5t-27.5 -2zM160 700h105l-105 -140h-75z" />
    <glyph glyph-name="upsilondieresistonos" unicode="&#x3b0;" 
d="M170 570q-23 0 -41.5 17t-18.5 43t18.5 43t41.5 17t41.5 -17t18.5 -43t-18.5 -43t-41.5 -17zM285 700h90l-100 -140h-65zM410 570q-23 0 -41.5 17t-18.5 43t18.5 43t41.5 17t41.5 -17t18.5 -43t-18.5 -43t-41.5 -17zM290 -10q-51 0 -92.5 16t-71 44.5t-45.5 68t-16 86.5
v275h100v-275q0 -53 34 -86.5t91 -33.5t91 33.5t34 86.5v275h100v-275q0 -47 -16 -86.5t-45.5 -68t-71 -44.5t-92.5 -16z" />
    <glyph glyph-name="alpha" unicode="&#x3b1;" horiz-adv-x="620" 
d="M265 -10q-45 0 -86 18.5t-71.5 52t-49 79.5t-18.5 100t18.5 100t49 79.5t71.5 52t86 18.5q43 0 74.5 -12.5t51.5 -27.5q24 -18 39 -40v70h100v-355q0 -40 40 -40q10 0 18 2q4 1 7 3v-90q-5 -3 -11 -5q-13 -5 -34 -5q-36 0 -58 12.5t-35 27.5q-15 18 -22 40
q-17 -22 -42 -40q-21 -15 -53 -27.5t-75 -12.5zM285 85q30 0 56.5 11.5t46 32t31 49t11.5 62.5t-11.5 62.5t-31 49t-46 32t-56.5 11.5t-56.5 -11.5t-46 -32t-31 -49t-11.5 -62.5t11.5 -62.5t31 -49t46 -32t56.5 -11.5z" />
    <glyph glyph-name="beta" unicode="&#x3b2;" horiz-adv-x="570" 
d="M75 505q0 47 14.5 85t41 64.5t64.5 41t85 14.5q45 0 82 -14t63 -39.5t40.5 -60.5t14.5 -76q0 -34 -11 -58.5t-24 -40.5q-16 -18 -35 -31q34 -15 60 -41q23 -22 41.5 -56t18.5 -83q0 -45 -16 -83.5t-45 -66.5t-69.5 -44t-89.5 -16h-135v-210h-100v715zM310 95
q53 0 86.5 33t33.5 82t-33.5 82t-86.5 33h-70v95h30q49 0 79.5 29t30.5 71t-27.5 68.5t-72.5 26.5q-49 0 -77 -28.5t-28 -81.5v-410h135z" />
    <glyph glyph-name="gamma" unicode="&#x3b3;" horiz-adv-x="510" 
d="M205 -5l-195 485h110l135 -355l135 355h110l-195 -485v-205h-100v205z" />
    <glyph glyph-name="delta" unicode="&#x3b4;" horiz-adv-x="575" 
d="M285 -10q-53 0 -97.5 18.5t-77.5 50.5t-51.5 74.5t-18.5 91.5t18.5 91.5t51.5 74.5t77.5 50.5t97.5 18.5q17 0 27.5 -1.5t16.5 -3.5q7 -3 11 -5q-38 45 -81.5 75.5t-81.5 49.5q-44 22 -87 35v90h385v-90h-175v-5q39 -24 80 -60.5t74.5 -82t54.5 -100.5t21 -117
q0 -56 -18.5 -103t-51.5 -81t-78 -52.5t-97 -18.5zM285 85q32 0 58.5 10.5t46 29.5t30 44.5t10.5 55.5t-10.5 55.5t-30 44.5t-46 29.5t-58.5 10.5t-58.5 -10.5t-46 -29.5t-30 -44.5t-10.5 -55.5t10.5 -55.5t30 -44.5t46 -29.5t58.5 -10.5z" />
    <glyph glyph-name="epsilon" unicode="&#x3b5;" horiz-adv-x="450" 
d="M245 -10q-51 0 -89 12t-64 32.5t-39 46.5t-13 54q0 34 14.5 55.5t32.5 35.5q21 15 48 24q-22 8 -40 22q-15 12 -27.5 32.5t-12.5 50.5q0 26 12 50.5t36 43t59.5 30t82.5 11.5q43 0 76 -10t55 -21q26 -13 44 -30l-65 -65q-14 10 -31 18q-14 7 -34.5 12.5t-44.5 5.5
q-45 0 -65 -16t-20 -39q0 -19 20 -34.5t65 -15.5h70v-90h-70q-53 0 -76.5 -18.5t-23.5 -41.5q0 -26 23.5 -45.5t76.5 -19.5q32 0 57 9.5t42 20.5q20 13 36 30l65 -65q-20 -25 -49 -43q-25 -16 -62.5 -29t-88.5 -13z" />
    <glyph glyph-name="zeta" unicode="&#x3b6;" horiz-adv-x="475" 
d="M320 -150q0 32 5 59.5t12 47.5q8 24 18 43q-9 -3 -20 -5q-22 -5 -50 -5q-117 0 -178.5 58.5t-61.5 156.5q0 40 10.5 78t27 73.5t38 66.5t44.5 58q53 62 120 114h-220v105h380v-85q-84 -59 -150 -124q-28 -28 -55 -60t-48 -67t-34 -71.5t-13 -72.5q0 -64 38 -99.5
t117 -35.5q26 0 48 3.5t38 8.5q18 5 34 13l55 -70q-16 -27 -28 -58q-11 -26 -19 -60t-8 -72h-100v0z" />
    <glyph glyph-name="eta" unicode="&#x3b7;" 
d="M70 480h100v-70q15 22 37 40q19 15 47 27.5t66 12.5q41 0 76 -14.5t60.5 -41.5t39.5 -66t14 -88v-280h-100v280q0 53 -30.5 84t-79.5 31q-28 0 -52 -10t-41 -27.5t-27 -42.5t-10 -55v-260h-100v480z" />
    <glyph glyph-name="theta" unicode="&#x3b8;" horiz-adv-x="630" 
d="M315 -10q-51 0 -97 22.5t-81 67.5t-56 112.5t-21 157.5t21 157.5t56 112.5t81 67.5t97 22.5t97 -22.5t81 -67.5t56 -112.5t21 -157.5t-21 -157.5t-56 -112.5t-81 -67.5t-97 -22.5zM315 85q28 0 53.5 12.5t46 39.5t33.5 68.5t17 99.5h-300q4 -58 17 -99.5t33.5 -68.5
t46 -39.5t53.5 -12.5zM465 395q-4 58 -17 99.5t-33.5 68.5t-46 39.5t-53.5 12.5t-53.5 -12.5t-46 -39.5t-33.5 -68.5t-17 -99.5h300z" />
    <glyph glyph-name="iota" unicode="&#x3b9;" horiz-adv-x="295" 
d="M215 -10q-68 0 -106.5 40t-38.5 115v335h100v-325q0 -34 17.5 -52t47.5 -18q18 0 34 7l16 8v-95q-9 -4 -20 -8q-10 -3 -22.5 -5t-27.5 -2z" />
    <glyph glyph-name="kappa" unicode="&#x3ba;" horiz-adv-x="515" 
d="M70 480h100v-220l205 220h125l-185 -195l200 -285h-115l-150 215l-80 -85v-130h-100v480z" />
    <glyph glyph-name="lambda" unicode="&#x3bb;" horiz-adv-x="520" 
d="M220 480l-20 50q-11 26 -21.5 42.5t-21.5 26t-24 13t-28 3.5q-10 0 -18.5 -1.5t-15.5 -3.5q-8 -3 -16 -5v95q10 2 21 5q10 2 23.5 3.5t30.5 1.5q60 0 100.5 -37t69.5 -113l210 -560h-110l-130 350l-150 -350h-110z" />
    <glyph glyph-name="uni03BC" unicode="&#x3bc;" 
d="M70 480h100v-280q0 -53 30.5 -84t79.5 -31q28 0 52 10t41 27.5t27 42.5t10 55v260h100v-480h-100v70q-16 -22 -38 -40q-19 -15 -46.5 -27.5t-65.5 -12.5q-19 0 -35.5 3.5t-28.5 8.5q-14 5 -26 13v-225h-100v690z" />
    <glyph glyph-name="nu" unicode="&#x3bd;" horiz-adv-x="510" 
d="M10 480h110l135 -355l135 355h110l-190 -480h-110z" />
    <glyph glyph-name="xi" unicode="&#x3be;" horiz-adv-x="510" 
d="M345 -150q0 32 5 59.5t12 47.5q8 24 18 43q-8 -3 -19 -5q-10 -2 -23.5 -3.5t-32.5 -1.5q-62 0 -109.5 16t-80 43.5t-49 65t-16.5 80.5q0 53 19 87.5t43 54.5t45.5 28.5t26.5 9.5q-2 0 -20 7.5t-39 25t-38 47t-17 75.5q0 36 15.5 68.5t44.5 57t70.5 39.5t94.5 15
q43 0 74.5 -8t51.5 -17q24 -11 39 -25l-55 -80q-12 9 -29 17q-14 7 -34.5 12.5t-46.5 5.5q-60 0 -92.5 -28.5t-32.5 -66.5q0 -19 8.5 -36t25.5 -30t42 -21t59 -8h69v-100h-69q-79 0 -117 -33.5t-38 -86.5q0 -26 10 -48t31 -38t54 -25t80 -9q26 0 48 3.5t38 8.5q18 5 34 13
l55 -70q-16 -27 -28 -58q-11 -26 -19 -60t-8 -72h-100v0z" />
    <glyph glyph-name="omicron" unicode="&#x3bf;" 
d="M290 -10q-53 0 -98.5 19.5t-79 53t-53 79t-19.5 98.5q0 52 19.5 98t53 79.5t79 53t98.5 19.5q52 0 98 -19.5t79.5 -53t53 -79.5t19.5 -98q0 -53 -19.5 -98.5t-53 -79t-79.5 -53t-98 -19.5zM290 85q32 0 59.5 11.5t47.5 32t31.5 49t11.5 62.5t-11.5 62.5t-31.5 49
t-47.5 32t-59.5 11.5t-59.5 -11.5t-47.5 -32t-31.5 -49t-11.5 -62.5t11.5 -62.5t31.5 -49t47.5 -32t59.5 -11.5z" />
    <glyph glyph-name="pi" unicode="&#x3c0;" horiz-adv-x="585" 
d="M70 480h445v-480h-100v385h-245v-385h-100v480z" />
    <glyph glyph-name="rho" unicode="&#x3c1;" horiz-adv-x="590" 
d="M60 240q0 54 18.5 100t51.5 79.5t77.5 52t97.5 18.5q52 0 97 -18.5t78 -52t51.5 -79.5t18.5 -100t-18.5 -100t-51.5 -79.5t-78 -52t-97 -18.5q-36 0 -63 7.5t-45 17.5q-21 11 -37 25v-250h-100v450zM305 85q30 0 56.5 11.5t46 32t31 49t11.5 62.5t-11.5 62.5t-31 49
t-46 32t-56.5 11.5t-56.5 -11.5t-46 -32t-31 -49t-11.5 -62.5t11.5 -62.5t31 -49t46 -32t56.5 -11.5z" />
    <glyph glyph-name="sigma1" unicode="&#x3c2;" horiz-adv-x="515" 
d="M315 -150q0 32 6 58.5t14 46.5q9 23 20 42q-8 -2 -18 -4q-17 -3 -47 -3q-53 0 -98.5 19.5t-79 53t-53 79t-19.5 98.5q0 54 18.5 100t52 79.5t79.5 52t100 18.5q45 0 79.5 -10.5t57.5 -22.5q27 -14 48 -32l-55 -75q-16 12 -35 22q-17 8 -41 15.5t-54 7.5q-68 0 -109 -41.5
t-41 -113.5q0 -34 11.5 -62.5t33.5 -49t52 -32t68 -11.5q26 0 46.5 3.5t34.5 8.5q17 5 29 13l55 -70q-16 -27 -28 -58q-11 -26 -19 -60t-8 -72h-100v0z" />
    <glyph glyph-name="sigma" unicode="&#x3c3;" horiz-adv-x="615" 
d="M290 -10q-53 0 -98.5 19.5t-79 52.5t-53 77.5t-19.5 95.5t19.5 95.5t53 77.5t79 52.5t98.5 19.5h315v-95h-120q15 -19 27 -43q11 -20 19.5 -47.5t8.5 -59.5q0 -51 -19.5 -95.5t-53 -77.5t-79.5 -52.5t-98 -19.5zM290 85q32 0 59.5 11.5t47.5 31.5t31.5 47.5t11.5 59.5
t-11.5 59.5t-31.5 47.5t-47.5 31.5t-59.5 11.5t-59.5 -11.5t-47.5 -31.5t-31.5 -47.5t-11.5 -59.5t11.5 -59.5t31.5 -47.5t47.5 -31.5t59.5 -11.5z" />
    <glyph glyph-name="tau" unicode="&#x3c4;" horiz-adv-x="470" 
d="M325 -10q-68 0 -104 37.5t-36 112.5v245h-165v95h430v-95h-165v-235q0 -65 60 -65q11 0 21 2t18 5q9 4 16 8v-95q-10 -4 -21 -8q-10 -3 -23.5 -5t-30.5 -2z" />
    <glyph glyph-name="upsilon" unicode="&#x3c5;" 
d="M290 -10q-51 0 -92.5 16t-71 44.5t-45.5 68t-16 86.5v275h100v-275q0 -53 34 -86.5t91 -33.5t91 33.5t34 86.5v275h100v-275q0 -47 -16 -86.5t-45.5 -68t-71 -44.5t-92.5 -16z" />
    <glyph glyph-name="phi" unicode="&#x3c6;" horiz-adv-x="740" 
d="M320 -15q-62 2 -113.5 23t-88.5 55t-57.5 78.5t-20.5 93.5q0 47 14.5 86t39 69.5t56 52t65.5 32.5l40 -80q-23 -8 -43.5 -21.5t-36.5 -34t-25.5 -46.5t-9.5 -58q0 -30 12.5 -57.5t36 -48.5t57 -34t74.5 -15v405h95q62 0 114 -21t90 -55.5t59.5 -79.5t21.5 -94
t-20.5 -93.5t-57.5 -78.5t-88.5 -55t-113.5 -23v-195h-100v195zM420 80q41 2 74.5 15t57 34t36 48.5t12.5 57.5t-12.5 57.5t-36 48.5t-57 34t-74.5 15v-310z" />
    <glyph glyph-name="chi" unicode="&#x3c7;" horiz-adv-x="500" 
d="M190 250l-165 230h115l110 -155l110 155h115l-165 -230l180 -250h-115l-125 175l-125 -175h-115z" />
    <glyph glyph-name="psi" unicode="&#x3c8;" horiz-adv-x="730" 
d="M315 -10q-117 8 -183.5 77.5t-66.5 197.5v215h100v-215q0 -87 41 -131.5t109 -48.5v395h100v-395q68 4 109 48.5t41 131.5v215h100v-215q0 -128 -66.5 -197.5t-183.5 -77.5v-200h-100v200z" />
    <glyph glyph-name="omega" unicode="&#x3c9;" horiz-adv-x="810" 
d="M245 -10q-41 0 -77.5 16.5t-63.5 48.5t-43 78.5t-16 106.5q0 72 22 119.5t48 76.5q31 34 70 54l45 -75q-25 -16 -43 -41q-16 -21 -29 -54t-13 -80q0 -83 30 -119t75 -36q21 0 40 9.5t33.5 28.5t23 48.5t8.5 68.5v90h100v-90q0 -39 8.5 -68.5t23 -48.5t33.5 -28.5t40 -9.5
q45 0 75 36t30 119q0 47 -13.5 80t-29.5 54q-18 25 -42 41l45 75q39 -20 70 -54q26 -29 48 -76.5t22 -119.5q0 -60 -16 -106.5t-43 -78.5t-63.5 -48.5t-77.5 -16.5q-47 0 -78 15.5t-49 34.5q-22 22 -33 50q-13 -28 -34 -50q-19 -19 -49 -34.5t-77 -15.5z" />
    <glyph glyph-name="iotadieresis" unicode="&#x3ca;" horiz-adv-x="305" 
d="M25 570q-23 0 -41.5 17t-18.5 43t18.5 43t41.5 17t41.5 -17t18.5 -43t-18.5 -43t-41.5 -17zM225 570q-23 0 -41.5 17t-18.5 43t18.5 43t41.5 17t41.5 -17t18.5 -43t-18.5 -43t-41.5 -17zM220 -10q-68 0 -106.5 40t-38.5 115v335h100v-325q0 -34 17.5 -52t47.5 -18
q18 0 34 7l16 8v-95q-9 -4 -20 -8q-10 -3 -22.5 -5t-27.5 -2z" />
    <glyph glyph-name="upsilondieresis" unicode="&#x3cb;" 
d="M290 -10q-51 0 -92.5 16t-71 44.5t-45.5 68t-16 86.5v275h100v-275q0 -53 34 -86.5t91 -33.5t91 33.5t34 86.5v275h100v-275q0 -47 -16 -86.5t-45.5 -68t-71 -44.5t-92.5 -16zM190 570q-23 0 -41.5 17t-18.5 43t18.5 43t41.5 17t41.5 -17t18.5 -43t-18.5 -43t-41.5 -17z
M390 570q-23 0 -41.5 17t-18.5 43t18.5 43t41.5 17t41.5 -17t18.5 -43t-18.5 -43t-41.5 -17z" />
    <glyph glyph-name="omicrontonos" unicode="&#x3cc;" 
d="M290 -10q-53 0 -98.5 19.5t-79 53t-53 79t-19.5 98.5q0 52 19.5 98t53 79.5t79 53t98.5 19.5q52 0 98 -19.5t79.5 -53t53 -79.5t19.5 -98q0 -53 -19.5 -98.5t-53 -79t-79.5 -53t-98 -19.5zM290 85q32 0 59.5 11.5t47.5 32t31.5 49t11.5 62.5t-11.5 62.5t-31.5 49
t-47.5 32t-59.5 11.5t-59.5 -11.5t-47.5 -32t-31.5 -49t-11.5 -62.5t11.5 -62.5t31.5 -49t47.5 -32t59.5 -11.5zM325 700h105l-105 -140h-75z" />
    <glyph glyph-name="upsilontonos" unicode="&#x3cd;" 
d="M290 -10q-51 0 -92.5 16t-71 44.5t-45.5 68t-16 86.5v275h100v-275q0 -53 34 -86.5t91 -33.5t91 33.5t34 86.5v275h100v-275q0 -47 -16 -86.5t-45.5 -68t-71 -44.5t-92.5 -16zM325 700h105l-105 -140h-75z" />
    <glyph glyph-name="omegatonos" unicode="&#x3ce;" horiz-adv-x="810" 
d="M245 -10q-41 0 -77.5 16.5t-63.5 48.5t-43 78.5t-16 106.5q0 72 22 119.5t48 76.5q31 34 70 54l45 -75q-25 -16 -43 -41q-16 -21 -29 -54t-13 -80q0 -83 30 -119t75 -36q21 0 40 9.5t33.5 28.5t23 48.5t8.5 68.5v90h100v-90q0 -39 8.5 -68.5t23 -48.5t33.5 -28.5t40 -9.5
q45 0 75 36t30 119q0 47 -13.5 80t-29.5 54q-18 25 -42 41l45 75q39 -20 70 -54q26 -29 48 -76.5t22 -119.5q0 -60 -16 -106.5t-43 -78.5t-63.5 -48.5t-77.5 -16.5q-47 0 -78 15.5t-49 34.5q-22 22 -33 50q-13 -28 -34 -50q-19 -19 -49 -34.5t-77 -15.5zM445 700h105
l-105 -140h-75z" />
    <glyph glyph-name="uni0400" unicode="&#x400;" horiz-adv-x="650" 
d="M100 700h495v-105h-385v-180h305v-105h-305v-205h395v-105h-505v700zM215 930h105l75 -140h-75z" />
    <glyph glyph-name="uni0401" unicode="&#x401;" horiz-adv-x="650" 
d="M100 700h495v-105h-385v-180h305v-105h-305v-205h395v-105h-505v700zM250 790q-23 0 -41.5 17t-18.5 43t18.5 43t41.5 17t41.5 -17t18.5 -43t-18.5 -43t-41.5 -17zM450 790q-23 0 -41.5 17t-18.5 43t18.5 43t41.5 17t41.5 -17t18.5 -43t-18.5 -43t-41.5 -17z" />
    <glyph glyph-name="uni0402" unicode="&#x402;" horiz-adv-x="725" 
d="M435 90q60 0 95 35t35 95t-35 95t-95 35q-36 0 -64.5 -10.5t-48.5 -22.5q-24 -14 -42 -32v-285h-110v595h-170v105h450v-105h-170v-196q21 16 48 28q23 11 55 19.5t72 8.5q49 0 90 -17t71 -48t47 -74.5t17 -95.5q0 -53 -17 -96t-47 -74t-71 -48t-90 -17h-20v105z" />
    <glyph glyph-name="uni0403" unicode="&#x403;" horiz-adv-x="570" 
d="M100 700h450v-105h-340v-595h-110v700zM365 930h105l-105 -140h-75z" />
    <glyph glyph-name="uni0404" unicode="&#x404;" horiz-adv-x="745" 
d="M425 -10q-79 0 -146.5 28t-117 77t-78 114.5t-28.5 140.5t28.5 140.5t78 114.5t117 77t146.5 28q72 0 125 -21t89 -47q41 -30 71 -67l-70 -70q-21 29 -53 52q-27 20 -67.5 36.5t-94.5 16.5q-51 0 -93.5 -16.5t-75.5 -44.5t-55 -65.5t-31 -78.5h345v-100h-345
q7 -45 28.5 -84t54 -68.5t76 -46t96.5 -16.5q54 0 95 17t69 38q33 24 56 55l70 -70q-31 -39 -74 -70q-37 -26 -90.5 -48t-125.5 -22z" />
    <glyph glyph-name="uni0405" unicode="&#x405;" horiz-adv-x="570" 
d="M280 -10q-64 0 -111 16t-78 36q-36 23 -61 53l75 75q16 -22 42 -40q22 -15 55 -27.5t78 -12.5q34 0 60 8.5t44 23t27 33.5t9 40q0 29 -16 47.5t-42 31.5t-59 22t-68 19.5t-68 25t-59 37t-42 55.5t-16 82q0 39 16.5 74.5t47.5 62.5t75.5 42.5t100.5 15.5q54 0 95 -14
t69 -31q33 -20 56 -45l-75 -75q-16 18 -37 32q-18 12 -45.5 22.5t-62.5 10.5q-64 0 -97 -28.5t-33 -66.5q0 -29 16 -47.5t42 -31.5t59 -22t68 -19.5t68 -25t59 -37t42 -55.5t16 -82q0 -41 -17.5 -78.5t-49.5 -65.5t-78.5 -44.5t-104.5 -16.5z" />
    <glyph glyph-name="uni0406" unicode="&#x406;" horiz-adv-x="310" 
d="M100 700h110v-700h-110v700z" />
    <glyph glyph-name="uni0407" unicode="&#x407;" horiz-adv-x="310" 
d="M100 700h110v-700h-110v700zM55 790q-23 0 -41.5 17t-18.5 43t18.5 43t41.5 17t41.5 -17t18.5 -43t-18.5 -43t-41.5 -17zM255 790q-23 0 -41.5 17t-18.5 43t18.5 43t41.5 17t41.5 -17t18.5 -43t-18.5 -43t-41.5 -17z" />
    <glyph glyph-name="uni0408" unicode="&#x408;" horiz-adv-x="500" 
d="M185 -10q-48 0 -82 12.5t-57 27.5q-27 18 -46 40l70 70q12 -14 29 -25q14 -10 35.5 -17.5t50.5 -7.5q53 0 84 32.5t31 92.5v485h110v-485q0 -51 -16 -92.5t-45.5 -71t-71 -45.5t-92.5 -16z" />
    <glyph glyph-name="uni0409" unicode="&#x409;" horiz-adv-x="1080" 
d="M70 -10q-17 0 -30.5 2t-23.5 5q-11 4 -21 8v100q7 -3 16 -5q17 -5 39 -5q24 0 47 14.5t40 57.5t27.5 120t10.5 203v210h465v-250h160q51 0 94 -17.5t74.5 -48t49 -71.5t17.5 -88t-17.5 -88t-49 -71.5t-74.5 -48t-94 -17.5h-270v595h-245v-105q0 -154 -16 -251
t-44.5 -152.5t-68 -76t-86.5 -20.5zM800 100q26 0 49 9.5t40 26.5t26.5 40t9.5 49t-9.5 49t-26.5 40t-40 26.5t-49 9.5h-160v-250h160z" />
    <glyph glyph-name="uni040A" unicode="&#x40a;" horiz-adv-x="1085" 
d="M100 700h110v-250h325v250h110v-250h160q51 0 94 -17.5t74.5 -48t49 -71.5t17.5 -88t-17.5 -88t-49 -71.5t-74.5 -48t-94 -17.5h-270v350h-325v-350h-110v700zM805 100q26 0 49 9.5t40 26.5t26.5 40t9.5 49t-9.5 49t-26.5 40t-40 26.5t-49 9.5h-160v-250h160z" />
    <glyph glyph-name="uni040B" unicode="&#x40b;" horiz-adv-x="740" 
d="M170 595h-170v105h450v-105h-170v-196q21 16 48 28q23 11 55 19.5t72 8.5q47 0 86.5 -16t68 -45.5t44.5 -71t16 -92.5v-230h-110v230q0 53 -34 86.5t-91 33.5q-36 0 -64.5 -10.5t-48.5 -22.5q-24 -14 -42 -32v-285h-110v595z" />
    <glyph glyph-name="uni040C" unicode="&#x40c;" horiz-adv-x="685" 
d="M100 700h110v-340l315 340h140l-270 -290l290 -410h-135l-230 330l-110 -120v-210h-110v700zM400 930h105l-105 -140h-75z" />
    <glyph glyph-name="uni040D" unicode="&#x40d;" horiz-adv-x="795" 
d="M100 700h110v-515l385 515h100v-700h-110v515l-385 -515h-100v700zM255 930h105l75 -140h-75z" />
    <glyph glyph-name="uni040E" unicode="&#x40e;" horiz-adv-x="625" 
d="M145 -10q-17 0 -30.5 2t-23.5 5q-11 4 -21 8v100q7 -3 17 -5q18 -5 43 -5q52 0 81 24.5t49 65.5l15 30l-265 485h115l205 -375l175 375h115l-260 -545q-19 -39 -40 -70t-47 -52t-57.5 -32t-70.5 -11zM315 790q-32 0 -58.5 10.5t-46 29.5t-30 44.5t-10.5 55.5h75
q0 -30 20 -50t50 -20t50 20t20 50h75q0 -30 -10.5 -55.5t-30 -44.5t-46 -29.5t-58.5 -10.5z" />
    <glyph glyph-name="uni040F" unicode="&#x40f;" horiz-adv-x="760" 
d="M325 0h-225v700h110v-595h340v595h110v-700h-225v-150h-110v150z" />
    <glyph glyph-name="uni0410" unicode="&#x410;" horiz-adv-x="700" 
d="M290 700h120l280 -700h-115l-70 180h-310l-70 -180h-115zM465 280l-115 290l-115 -290h230z" />
    <glyph glyph-name="uni0411" unicode="&#x411;" horiz-adv-x="665" 
d="M100 700h460v-105h-350v-165h180q49 0 90 -16.5t71 -46t47 -68.5t17 -84t-17 -84t-47 -68.5t-71 -46t-90 -16.5h-290v700zM390 100q24 0 45 9t36.5 24.5t24.5 36.5t9 45t-9 45t-24.5 36.5t-36.5 24.5t-45 9h-180v-230h180z" />
    <glyph glyph-name="uni0412" unicode="&#x412;" horiz-adv-x="680" 
d="M100 700h280q47 0 85.5 -15t66.5 -40t43 -59t15 -71q0 -40 -13.5 -66t-29.5 -43q-18 -19 -42 -31q34 -14 60 -38q23 -20 41.5 -52.5t18.5 -79.5q0 -41 -17 -78.5t-47.5 -65.5t-72.5 -44.5t-93 -16.5h-295v700zM395 95q53 0 86.5 33t33.5 82t-33.5 82t-86.5 33h-185v-230
h185zM380 415q45 0 72.5 26.5t27.5 68.5t-27.5 68.5t-72.5 26.5h-170v-190h170z" />
    <glyph glyph-name="uni0413" unicode="&#x413;" horiz-adv-x="570" 
d="M100 700h450v-105h-340v-595h-110v700z" />
    <glyph glyph-name="uni0414" unicode="&#x414;" horiz-adv-x="725" 
d="M0 105h40q34 33 60 87q23 46 41.5 119t18.5 179v210h455v-595h85v-255h-110v150h-480v-150h-110v255zM505 105v490h-235v-105q0 -106 -17.5 -179t-37.5 -119q-25 -54 -55 -87h345z" />
    <glyph glyph-name="uni0415" unicode="&#x415;" horiz-adv-x="650" 
d="M100 700h495v-105h-385v-180h305v-105h-305v-205h395v-105h-505v700z" />
    <glyph glyph-name="uni0416" unicode="&#x416;" horiz-adv-x="980" 
d="M290 410l-270 290h140l275 -295v295h110v-295l275 295h140l-270 -290l290 -410h-135l-230 330l-70 -75v-255h-110v255l-70 75l-230 -330h-135z" />
    <glyph glyph-name="uni0417" unicode="&#x417;" horiz-adv-x="595" 
d="M280 -10q-66 0 -115 17t-81 38q-38 24 -64 55l75 75q19 -25 46 -43q23 -16 57 -29t82 -13q37 0 66 9.5t49 25.5t30 36.5t10 43.5q0 21 -10 40.5t-30 35t-49 25t-66 9.5h-90v105h90q32 0 56 8t40.5 21t25 30.5t8.5 36.5q0 37 -33 65.5t-97 28.5q-40 0 -70.5 -12t-51.5 -26
q-25 -17 -43 -37l-75 75q26 28 62 50q31 19 75 34.5t103 15.5q58 0 103 -15t75.5 -40t46 -59t15.5 -71q0 -44 -17.5 -73.5t-37.5 -47.5q-25 -21 -55 -34q37 -13 67 -36q26 -20 47 -52.5t21 -81.5q0 -41 -18 -79t-52.5 -67t-83.5 -46.5t-111 -17.5z" />
    <glyph glyph-name="uni0418" unicode="&#x418;" horiz-adv-x="795" 
d="M100 700h110v-515l385 515h100v-700h-110v515l-385 -515h-100v700z" />
    <glyph glyph-name="uni0419" unicode="&#x419;" horiz-adv-x="795" 
d="M100 700h110v-515l385 515h100v-700h-110v515l-385 -515h-100v700zM395 790q-32 0 -58.5 10.5t-46 29.5t-30 44.5t-10.5 55.5h75q0 -30 20 -50t50 -20t50 20t20 50h75q0 -30 -10.5 -55.5t-30 -44.5t-46 -29.5t-58.5 -10.5z" />
    <glyph glyph-name="uni041A" unicode="&#x41a;" horiz-adv-x="685" 
d="M100 700h110v-340l315 340h140l-270 -290l290 -410h-135l-230 330l-110 -120v-210h-110v700z" />
    <glyph glyph-name="uni041B" unicode="&#x41b;" horiz-adv-x="750" 
d="M70 -10q-17 0 -30.5 2t-23.5 5q-11 4 -21 8v100q7 -3 16 -5q17 -5 39 -5q24 0 47 14.5t40 57.5t27.5 120t10.5 203v210h475v-700h-110v595h-255v-105q0 -154 -16 -251t-44.5 -152.5t-68 -76t-86.5 -20.5z" />
    <glyph glyph-name="uni041C" unicode="&#x41c;" horiz-adv-x="930" 
d="M100 700h100l265 -340l265 340h100v-700h-110v515l-255 -325l-255 325v-515h-110v700z" />
    <glyph glyph-name="uni041D" unicode="&#x41d;" horiz-adv-x="765" 
d="M100 700h110v-295h345v295h110v-700h-110v305h-345v-305h-110v700z" />
    <glyph glyph-name="uni041E" unicode="&#x41e;" horiz-adv-x="850" 
d="M425 -10q-79 0 -146.5 28t-117 77t-78 114.5t-28.5 140.5t28.5 140.5t78 114.5t117 77t146.5 28t146.5 -28t117 -77t78 -114.5t28.5 -140.5t-28.5 -140.5t-78 -114.5t-117 -77t-146.5 -28zM425 90q54 0 101.5 20t83 55.5t55.5 83t20 101.5t-20 101.5t-55.5 83t-83 55.5
t-101.5 20t-101.5 -20t-83 -55.5t-55.5 -83t-20 -101.5t20 -101.5t55.5 -83t83 -55.5t101.5 -20z" />
    <glyph glyph-name="uni041F" unicode="&#x41f;" horiz-adv-x="765" 
d="M100 700h565v-700h-110v595h-345v-595h-110v700z" />
    <glyph glyph-name="uni0420" unicode="&#x420;" horiz-adv-x="660" 
d="M100 700h280q51 0 94 -17.5t74.5 -48t49 -71.5t17.5 -88t-17.5 -88t-49 -71.5t-74.5 -48t-94 -17.5h-170v-250h-110v700zM380 350q26 0 49 9.5t40 26.5t26.5 40t9.5 49t-9.5 49t-26.5 40t-40 26.5t-49 9.5h-170v-250h170z" />
    <glyph glyph-name="uni0421" unicode="&#x421;" horiz-adv-x="745" 
d="M425 -10q-79 0 -146.5 28t-117 77t-78 114.5t-28.5 140.5t28.5 140.5t78 114.5t117 77t146.5 28q72 0 125 -21t89 -47q41 -30 71 -67l-70 -70q-21 29 -53 52q-27 20 -67.5 36.5t-94.5 16.5t-101.5 -20t-83 -55.5t-55.5 -83t-20 -101.5t20 -101.5t55.5 -83t83 -55.5
t101.5 -20t95 17t69 38q33 24 56 55l70 -70q-31 -39 -74 -70q-37 -26 -90.5 -48t-125.5 -22z" />
    <glyph glyph-name="uni0422" unicode="&#x422;" horiz-adv-x="570" 
d="M230 595h-210v105h530v-105h-210v-595h-110v595z" />
    <glyph glyph-name="uni0423" unicode="&#x423;" horiz-adv-x="625" 
d="M145 -10q-17 0 -30.5 2t-23.5 5q-11 4 -21 8v100q7 -3 17 -5q18 -5 43 -5q52 0 81 24.5t49 65.5l15 30l-265 485h115l205 -375l175 375h115l-260 -545q-19 -39 -40 -70t-47 -52t-57.5 -32t-70.5 -11z" />
    <glyph glyph-name="uni0424" unicode="&#x424;" horiz-adv-x="860" 
d="M375 70q-79 6 -140.5 30t-103.5 62.5t-64 89t-22 108.5t22 108.5t64 89t103.5 62.5t140.5 30v70h110v-70q79 -6 140.5 -30t103.5 -62.5t64 -89t22 -108.5t-22 -108.5t-64 -89t-103.5 -62.5t-140.5 -30v-90h-110v90zM375 550q-53 -4 -93.5 -20t-69 -41.5t-43 -58.5
t-14.5 -70q0 -38 14.5 -70.5t43 -58t69 -41.5t93.5 -20v380zM485 170q52 4 93 20t69.5 41.5t43 58t14.5 70.5q0 37 -14.5 70t-43 58.5t-69.5 41.5t-93 20v-380z" />
    <glyph glyph-name="uni0425" unicode="&#x425;" horiz-adv-x="660" 
d="M260 365l-230 335h130l170 -255l170 255h130l-230 -335l250 -365h-130l-190 285l-190 -285h-130z" />
    <glyph glyph-name="uni0426" unicode="&#x426;" horiz-adv-x="765" 
d="M630 0h-530v700h110v-595h335v595h110v-595h85v-255h-110v150z" />
    <glyph glyph-name="uni0427" unicode="&#x427;" horiz-adv-x="725" 
d="M515 280q-23 -14 -51 -25q-24 -10 -57 -17.5t-72 -7.5q-113 0 -179 67.5t-66 192.5v210h110v-210q0 -72 41.5 -113.5t113.5 -41.5q35 0 65 9.5t51 20.5q25 13 44 30v305h110v-700h-110v280z" />
    <glyph glyph-name="uni0428" unicode="&#x428;" horiz-adv-x="1040" 
d="M100 700h110v-595h255v595h110v-595h255v595h110v-700h-840v700z" />
    <glyph glyph-name="uni0429" unicode="&#x429;" horiz-adv-x="1050" 
d="M915 0h-815v700h110v-595h255v595h110v-595h255v595h110v-595h85v-255h-110v150z" />
    <glyph glyph-name="uni042A" unicode="&#x42a;" horiz-adv-x="720" 
d="M170 595h-170v105h280v-250h160q51 0 94 -17.5t74.5 -48t49 -71.5t17.5 -88t-17.5 -88t-49 -71.5t-74.5 -48t-94 -17.5h-270v595zM440 100q26 0 49 9.5t40 26.5t26.5 40t9.5 49t-9.5 49t-26.5 40t-40 26.5t-49 9.5h-160v-250h160z" />
    <glyph glyph-name="uni042B" unicode="&#x42b;" horiz-adv-x="915" 
d="M100 700h110v-250h160q51 0 94 -17.5t74.5 -48t49 -71.5t17.5 -88t-17.5 -88t-49 -71.5t-74.5 -48t-94 -17.5h-270v700zM370 100q26 0 49 9.5t40 26.5t26.5 40t9.5 49t-9.5 49t-26.5 40t-40 26.5t-49 9.5h-160v-250h160zM705 700h110v-700h-110v700z" />
    <glyph glyph-name="uni042C" unicode="&#x42c;" horiz-adv-x="660" 
d="M100 700h110v-250h170q51 0 94 -17.5t74.5 -48t49 -71.5t17.5 -88t-17.5 -88t-49 -71.5t-74.5 -48t-94 -17.5h-280v700zM380 100q26 0 49 9.5t40 26.5t26.5 40t9.5 49t-9.5 49t-26.5 40t-40 26.5t-49 9.5h-170v-250h170z" />
    <glyph glyph-name="uni042D" unicode="&#x42d;" horiz-adv-x="740" 
d="M315 -10q-72 0 -125.5 22t-90.5 48q-43 31 -74 70l70 70q23 -31 56 -55q28 -21 68.5 -38t95.5 -17q52 0 96 16.5t76.5 46t53.5 68.5t29 84h-345v100h345q-9 41 -31 78.5t-55 65.5t-75.5 44.5t-93.5 16.5q-55 0 -95 -16.5t-67 -36.5q-32 -23 -53 -52l-70 70q29 37 71 67
q35 26 88.5 47t125.5 21q79 0 146.5 -28t117 -77t78 -114.5t28.5 -140.5t-28.5 -140.5t-78 -114.5t-117 -77t-146.5 -28z" />
    <glyph glyph-name="uni042E" unicode="&#x42e;" horiz-adv-x="1075" 
d="M670 -10q-69 0 -129.5 25.5t-106.5 68.5t-74.5 100t-34.5 121h-115v-305h-110v700h110v-295h115q6 60 34.5 115t74.5 97.5t106.5 67.5t129.5 25q73 0 137 -27.5t111 -75.5t74.5 -114t27.5 -143t-27.5 -143t-74.5 -114t-111 -75.5t-137 -27.5zM670 90q49 0 92.5 19.5
t76.5 54t52 82.5t19 104t-19 104t-52 82.5t-76.5 54t-92.5 19.5t-92.5 -19.5t-76.5 -54t-52 -82.5t-19 -104t19 -104t52 -82.5t76.5 -54t92.5 -19.5z" />
    <glyph glyph-name="uni042F" unicode="&#x42f;" horiz-adv-x="685" 
d="M199 280q-38 15 -67 42q-26 23 -46.5 61t-20.5 97q0 47 17 87t47.5 69.5t72.5 46.5t93 17h290v-700h-110v260h-165l-145 -260h-125zM475 360v240h-180q-53 0 -86.5 -33.5t-33.5 -86.5t33.5 -86.5t86.5 -33.5h180z" />
    <glyph glyph-name="uni0430" unicode="&#x430;" horiz-adv-x="520" 
d="M195 -10q-36 0 -65.5 11.5t-50.5 30.5t-32.5 44.5t-11.5 53.5q0 60 38 99.5t102 50.5l175 30q0 38 -27.5 64t-72.5 26q-29 0 -51.5 -10.5t-39.5 -22.5q-19 -14 -34 -32l-65 65q20 25 48 45q24 17 59 31t83 14q45 0 82 -14t63 -39t40.5 -59t14.5 -73v-305h-100v70
q-15 -22 -38 -40q-20 -15 -49 -27.5t-68 -12.5zM215 75q28 0 52.5 10.5t43 29.5t29 44.5t10.5 55.5v15l-140 -25q-38 -7 -56.5 -24.5t-18.5 -40.5q0 -26 21 -45.5t59 -19.5z" />
    <glyph glyph-name="uni0431" unicode="&#x431;" 
d="M300 -10q-53 0 -98.5 20.5t-79 60t-53 98.5t-19.5 136q0 90 19 156.5t52 112t76.5 71.5t92.5 35q39 8 71.5 17.5t55.5 17.5q27 10 48 20l50 -85q-20 -9 -48 -20q-24 -9 -59.5 -19.5t-82.5 -20.5q-72 -15 -115.5 -60.5t-54.5 -124.5q17 20 40 37q20 14 48.5 26t66.5 12
q45 0 86.5 -19.5t73.5 -52.5t51 -77.5t19 -95.5t-19 -95.5t-52 -77.5t-76.5 -52.5t-92.5 -19.5zM300 85q28 0 53.5 11.5t44.5 31.5t30.5 47.5t11.5 59.5t-11.5 59.5t-30.5 47.5t-44.5 31.5t-53.5 11.5t-53.5 -11.5t-44.5 -31.5t-30.5 -47.5t-11.5 -59.5t11.5 -59.5
t30.5 -47.5t44.5 -31.5t53.5 -11.5z" />
    <glyph glyph-name="uni0432" unicode="&#x432;" horiz-adv-x="515" 
d="M70 480h225q37 0 67 -10.5t50.5 -28.5t31.5 -41.5t11 -49.5t-9.5 -44.5t-20.5 -29.5q-13 -13 -30 -21q22 -9 40 -24q15 -14 27.5 -35.5t12.5 -55.5q0 -28 -12 -53.5t-34 -44.5t-53.5 -30.5t-70.5 -11.5h-235v480zM300 90q34 0 52 17t18 43t-18 43t-52 17h-130v-120h130z
M290 290q30 0 45 13.5t15 36.5t-15 36.5t-45 13.5h-120v-100h120z" />
    <glyph glyph-name="uni0433" unicode="&#x433;" horiz-adv-x="430" 
d="M70 480h340v-95h-240v-385h-100v480z" />
    <glyph glyph-name="uni0434" unicode="&#x434;" horiz-adv-x="555" 
d="M0 95h35q22 24 40 59q15 30 27.5 76t12.5 110v140h350v-385h70v-215h-100v120h-335v-120h-100v215zM365 95v290h-150v-45q0 -64 -12 -110t-26 -76q-17 -35 -37 -59h225z" />
    <glyph glyph-name="uni0435" unicode="&#x435;" horiz-adv-x="560" 
d="M290 -10q-53 0 -98.5 19.5t-79 53t-53 79t-19.5 98.5q0 52 19.5 98t52.5 79.5t77.5 53t95.5 19.5t94 -17.5t74.5 -49t49 -74.5t17.5 -94q0 -11 -1 -20t-2 -16q-1 -8 -2 -14h-370q4 -24 16.5 -46t32 -38.5t45.5 -26t56 -9.5q32 0 58 10t44 22q21 14 38 33l60 -70
q-20 -26 -50 -45q-26 -17 -64 -31t-91 -14zM415 290q-11 49 -44 79.5t-86 30.5q-57 0 -91 -30.5t-49 -79.5h270z" />
    <glyph glyph-name="uni0436" unicode="&#x436;" horiz-adv-x="740" 
d="M200 285l-185 195h125l180 -195v195h100v-195l180 195h125l-185 -195l200 -285h-115l-150 215l-55 -60v-155h-100v155l-55 60l-150 -215h-115z" />
    <glyph glyph-name="uni0437" unicode="&#x437;" horiz-adv-x="440" 
d="M210 -10q-49 0 -85.5 13t-60.5 29q-29 18 -49 43l65 65q15 -17 35 -30q17 -11 41 -20.5t54 -9.5q42 0 63.5 19.5t21.5 45.5q0 23 -21.5 41.5t-63.5 18.5h-65v90h60q38 0 56.5 15.5t18.5 34.5q0 23 -18.5 39t-56.5 16q-26 0 -47.5 -6.5t-36.5 -14.5q-18 -9 -31 -20l-65 65
q19 18 45 33q23 12 56.5 22.5t78.5 10.5q43 0 76.5 -11.5t56.5 -30t35 -43t12 -50.5q0 -30 -12.5 -50.5t-27.5 -32.5q-18 -14 -40 -22q26 -9 47 -24q18 -14 33 -35.5t15 -55.5q0 -28 -13 -54t-37 -46.5t-59.5 -32.5t-80.5 -12z" />
    <glyph glyph-name="uni0438" unicode="&#x438;" 
d="M70 480h100v-320l250 320h90v-480h-100v320l-250 -320h-90v480z" />
    <glyph glyph-name="uni0439" unicode="&#x439;" 
d="M70 480h100v-320l250 320h90v-480h-100v320l-250 -320h-90v480zM290 560q-32 0 -58.5 10.5t-46 29.5t-30 44.5t-10.5 55.5h75q0 -30 20 -50t50 -20t50 20t20 50h75q0 -30 -10.5 -55.5t-30 -44.5t-46 -29.5t-58.5 -10.5z" />
    <glyph glyph-name="uni043A" unicode="&#x43a;" horiz-adv-x="515" 
d="M70 480h100v-220l205 220h125l-185 -195l200 -285h-115l-150 215l-80 -85v-130h-100v480z" />
    <glyph glyph-name="uni043B" unicode="&#x43b;" horiz-adv-x="560" 
d="M55 -10q-25 0 -43 5q-10 2 -17 5v95q6 -2 12 -3q5 -1 11 -1.5t12 -0.5q21 0 37.5 9t28 35.5t18 75.5t6.5 130v140h370v-480h-100v385h-170v-45q0 -105 -12.5 -173t-34.5 -107t-52 -54.5t-66 -15.5z" />
    <glyph glyph-name="uni043C" unicode="&#x43c;" horiz-adv-x="650" 
d="M70 480h85l170 -210l170 210h85v-480h-100v320l-155 -190l-155 190v-320h-100v480z" />
    <glyph glyph-name="uni043D" unicode="&#x43d;" horiz-adv-x="575" 
d="M70 480h100v-190h235v190h100v-480h-100v200h-235v-200h-100v480z" />
    <glyph glyph-name="uni043E" unicode="&#x43e;" 
d="M290 -10q-53 0 -98.5 19.5t-79 53t-53 79t-19.5 98.5q0 52 19.5 98t53 79.5t79 53t98.5 19.5q52 0 98 -19.5t79.5 -53t53 -79.5t19.5 -98q0 -53 -19.5 -98.5t-53 -79t-79.5 -53t-98 -19.5zM290 85q32 0 59.5 11.5t47.5 32t31.5 49t11.5 62.5t-11.5 62.5t-31.5 49
t-47.5 32t-59.5 11.5t-59.5 -11.5t-47.5 -32t-31.5 -49t-11.5 -62.5t11.5 -62.5t31.5 -49t47.5 -32t59.5 -11.5z" />
    <glyph glyph-name="uni043F" unicode="&#x43f;" horiz-adv-x="575" 
d="M70 480h435v-480h-100v385h-235v-385h-100v480z" />
    <glyph glyph-name="uni0440" unicode="&#x440;" horiz-adv-x="600" 
d="M70 480h100v-70q15 22 39 40q20 15 51 27.5t75 12.5q45 0 86 -18.5t71.5 -52t49 -79.5t18.5 -100t-18.5 -100t-49 -79.5t-71.5 -52t-86 -18.5q-44 0 -75 12.5t-51 27.5q-24 18 -39 40v-280h-100v690zM315 85q30 0 56.5 11.5t46 32t31 49t11.5 62.5t-11.5 62.5t-31 49
t-46 32t-56.5 11.5t-56.5 -11.5t-46 -32t-31 -49t-11.5 -62.5t11.5 -62.5t31 -49t46 -32t56.5 -11.5z" />
    <glyph glyph-name="uni0441" unicode="&#x441;" horiz-adv-x="520" 
d="M290 -10q-53 0 -98.5 19.5t-79 53t-53 79t-19.5 98.5q0 52 19.5 98t53 79.5t79 53t98.5 19.5q51 0 88.5 -15t62.5 -33q29 -21 49 -47l-70 -65q-14 18 -33 32q-17 12 -41 22.5t-56 10.5t-59.5 -11.5t-47.5 -32t-31.5 -49t-11.5 -62.5t11.5 -62.5t31.5 -49t47.5 -32
t59.5 -11.5t57 10.5t42 24.5q20 15 36 35l70 -65q-22 -28 -52 -50q-26 -19 -64 -34.5t-89 -15.5z" />
    <glyph glyph-name="uni0442" unicode="&#x442;" horiz-adv-x="470" 
d="M185 385h-165v95h430v-95h-165v-385h-100v385z" />
    <glyph glyph-name="uni0443" unicode="&#x443;" horiz-adv-x="510" 
d="M115 -210q-17 0 -30.5 2t-23.5 5q-11 4 -21 8v95q7 -4 17 -8q8 -3 18.5 -5t24.5 -2q30 0 51.5 17.5t33.5 47.5l20 50l-195 480h110l135 -355l135 355h110l-210 -535q-30 -76 -72.5 -115.5t-102.5 -39.5z" />
    <glyph glyph-name="uni0444" unicode="&#x444;" horiz-adv-x="720" 
d="M310 -15q-62 6 -112 27.5t-85 55t-54 77.5t-19 95t19 95t54 77.5t85 55t112 27.5v205h100v-205q62 -6 112 -27.5t85 -55t54 -77.5t19 -95t-19 -95t-54 -77.5t-85 -55t-112 -27.5v-195h-100v195zM310 400q-38 -2 -69 -15t-53.5 -35t-35 -50t-12.5 -60t12.5 -60t35 -50
t53.5 -35t69 -15v320zM410 80q37 2 68.5 15t54 35t35 50t12.5 60t-12.5 60t-35 50t-54 35t-68.5 15v-320z" />
    <glyph glyph-name="uni0445" unicode="&#x445;" horiz-adv-x="500" 
d="M190 250l-165 230h115l110 -155l110 155h115l-165 -230l180 -250h-115l-125 175l-125 -175h-115z" />
    <glyph glyph-name="uni0446" unicode="&#x446;" horiz-adv-x="585" 
d="M465 0h-395v480h100v-385h225v385h100v-385h70v-215h-100v120z" />
    <glyph glyph-name="uni0447" unicode="&#x447;" horiz-adv-x="540" 
d="M370 175q-16 -10 -35 -18q-17 -7 -41 -12t-54 -5q-39 0 -72 13.5t-57 39.5t-37.5 63t-13.5 84v140h100v-140q0 -49 27.5 -77t72.5 -28q26 0 46.5 5t34.5 12q17 8 29 18v210h100v-480h-100v175z" />
    <glyph glyph-name="uni0448" unicode="&#x448;" horiz-adv-x="790" 
d="M70 480h100v-385h175v385h100v-385h175v385h100v-480h-650v480z" />
    <glyph glyph-name="uni0449" unicode="&#x449;" horiz-adv-x="810" 
d="M690 0h-620v480h100v-385h175v385h100v-385h175v385h100v-385h70v-215h-100v120z" />
    <glyph glyph-name="uni044A" unicode="&#x44a;" horiz-adv-x="540" 
d="M120 385h-120v95h220v-150h100q43 0 77.5 -12.5t58.5 -34.5t36.5 -52t12.5 -66t-12.5 -66t-36.5 -52t-58.5 -34.5t-77.5 -12.5h-200v385zM320 90q42 0 63.5 20.5t21.5 54.5t-21.5 54.5t-63.5 20.5h-100v-150h100z" />
    <glyph glyph-name="uni044B" unicode="&#x44b;" horiz-adv-x="695" 
d="M70 480h100v-150h100q43 0 77.5 -12.5t58.5 -34.5t36.5 -52t12.5 -66t-12.5 -66t-36.5 -52t-58.5 -34.5t-77.5 -12.5h-200v480zM270 90q42 0 63.5 20.5t21.5 54.5t-21.5 54.5t-63.5 20.5h-100v-150h100zM525 480h100v-480h-100v480z" />
    <glyph glyph-name="uni044C" unicode="&#x44c;" horiz-adv-x="500" 
d="M70 480h100v-150h110q43 0 77.5 -12.5t58.5 -34.5t36.5 -52t12.5 -66t-12.5 -66t-36.5 -52t-58.5 -34.5t-77.5 -12.5h-210v480zM280 90q42 0 63.5 20.5t21.5 54.5t-21.5 54.5t-63.5 20.5h-110v-150h110z" />
    <glyph glyph-name="uni044D" unicode="&#x44d;" horiz-adv-x="510" 
d="M220 -10q-51 0 -89 15.5t-64 34.5q-30 22 -52 50l70 65q16 -20 36 -35q17 -14 42 -24.5t57 -10.5q47 0 75 18.5t44 41.5q18 26 26 60h-220v85h215q-9 29 -27 52q-16 20 -43 36.5t-70 16.5q-32 0 -56 -10.5t-41 -22.5q-19 -14 -33 -32l-70 65q20 26 49 47q25 18 62.5 33
t88.5 15q52 0 98 -19.5t79.5 -53t53 -79.5t19.5 -98q0 -53 -19.5 -98.5t-53 -79t-79.5 -53t-98 -19.5z" />
    <glyph glyph-name="uni044E" unicode="&#x44e;" horiz-adv-x="790" 
d="M505 -10q-51 0 -92.5 16t-72.5 44t-50 66.5t-25 83.5h-95v-200h-100v480h100v-190h95q7 43 26.5 79.5t50 63.5t71.5 42t92 15q52 0 97 -18.5t78 -52t51.5 -79.5t18.5 -100t-18.5 -100t-51.5 -79.5t-78 -52t-97 -18.5zM505 85q64 0 104.5 41.5t40.5 113.5t-40.5 113.5
t-104.5 41.5t-104.5 -41.5t-40.5 -113.5t40.5 -113.5t104.5 -41.5z" />
    <glyph glyph-name="uni044F" unicode="&#x44f;" horiz-adv-x="520" 
d="M145 175q-27 11 -48 31q-18 17 -32.5 44.5t-14.5 69.5q0 34 12.5 63t36.5 50.5t58.5 34t77.5 12.5h215v-480h-100v160h-105l-95 -160h-115zM350 250v140h-115q-42 0 -63.5 -20t-21.5 -50t21.5 -50t63.5 -20h115z" />
    <glyph glyph-name="uni0450" unicode="&#x450;" horiz-adv-x="560" 
d="M290 -10q-53 0 -98.5 19.5t-79 53t-53 79t-19.5 98.5q0 52 19.5 98t52.5 79.5t77.5 53t95.5 19.5t94 -17.5t74.5 -49t49 -74.5t17.5 -94q0 -11 -1 -20t-2 -16q-1 -8 -2 -14h-370q4 -24 16.5 -46t32 -38.5t45.5 -26t56 -9.5q32 0 58 10t44 22q21 14 38 33l60 -70
q-20 -26 -50 -45q-26 -17 -64 -31t-91 -14zM415 290q-11 49 -44 79.5t-86 30.5q-57 0 -91 -30.5t-49 -79.5h270zM140 700h105l75 -140h-75z" />
    <glyph glyph-name="uni0451" unicode="&#x451;" horiz-adv-x="560" 
d="M290 -10q-53 0 -98.5 19.5t-79 53t-53 79t-19.5 98.5q0 52 19.5 98t52.5 79.5t77.5 53t95.5 19.5t94 -17.5t74.5 -49t49 -74.5t17.5 -94q0 -11 -1 -20t-2 -16q-1 -8 -2 -14h-370q4 -24 16.5 -46t32 -38.5t45.5 -26t56 -9.5q32 0 58 10t44 22q21 14 38 33l60 -70
q-20 -26 -50 -45q-26 -17 -64 -31t-91 -14zM415 290q-11 49 -44 79.5t-86 30.5q-57 0 -91 -30.5t-49 -79.5h270zM185 570q-23 0 -41.5 17t-18.5 43t18.5 43t41.5 17t41.5 -17t18.5 -43t-18.5 -43t-41.5 -17zM385 570q-23 0 -41.5 17t-18.5 43t18.5 43t41.5 17t41.5 -17
t18.5 -43t-18.5 -43t-41.5 -17z" />
    <glyph glyph-name="uni0452" unicode="&#x452;" horiz-adv-x="585" 
d="M300 80q60 0 97.5 38.5t37.5 106.5q0 34 -9.5 60.5t-26 45.5t-38.5 29t-46 10q-28 0 -52 -10t-41 -27.5t-27 -42.5t-10 -55v-235h-100v530h-85v95h85v75h100v-75h130v-95h-130v-145q15 22 37 40q19 15 47 27.5t66 12.5q41 0 77.5 -16.5t63.5 -47.5t43 -75.5t16 -100.5
q0 -54 -17 -98.5t-48 -76t-74.5 -48.5t-95.5 -17v95z" />
    <glyph glyph-name="uni0453" unicode="&#x453;" horiz-adv-x="430" 
d="M70 480h340v-95h-240v-385h-100v480zM275 700h105l-105 -140h-75z" />
    <glyph glyph-name="uni0454" unicode="&#x454;" horiz-adv-x="520" 
d="M290 -10q-53 0 -98.5 19.5t-79 53t-53 79t-19.5 98.5q0 52 19.5 98t53 79.5t79 53t98.5 19.5q51 0 88.5 -15t62.5 -33q29 -21 49 -47l-70 -65q-14 18 -33 32q-17 12 -41 22.5t-56 10.5q-44 0 -70.5 -16.5t-42.5 -36.5q-18 -23 -27 -52h215v-85h-220q8 -34 26 -60
q16 -23 44 -41.5t75 -18.5q32 0 57 10.5t42 24.5q20 15 36 35l70 -65q-22 -28 -52 -50q-26 -19 -64 -34.5t-89 -15.5z" />
    <glyph glyph-name="uni0455" unicode="&#x455;" horiz-adv-x="435" 
d="M215 -10q-48 0 -83 14t-59 31q-28 19 -48 45l65 65q15 -19 34 -33q17 -12 39.5 -22t51.5 -10q42 0 63.5 18.5t21.5 41.5q0 20 -19 31.5t-47 20.5t-61.5 19t-61.5 26.5t-47 43t-19 69.5q0 28 12 53.5t34.5 44.5t55 30.5t73.5 11.5q43 0 75 -10.5t53 -22.5q25 -14 42 -32
l-65 -65q-12 11 -28 20q-14 8 -33.5 14t-43.5 6q-38 0 -56.5 -15.5t-18.5 -34.5q0 -20 19 -31.5t47 -20.5t61.5 -19t61.5 -26.5t47 -43.5t19 -69q0 -30 -12.5 -57t-36.5 -48t-58.5 -33t-77.5 -12z" />
    <glyph glyph-name="uni0456" unicode="&#x456;" horiz-adv-x="250" 
d="M75 480h100v-480h-100v480zM125 570q-23 0 -41.5 17t-18.5 43t18.5 43t41.5 17t41.5 -17t18.5 -43t-18.5 -43t-41.5 -17z" />
    <glyph glyph-name="uni0457" unicode="&#x457;" horiz-adv-x="250" 
d="M75 480h100v-480h-100v480zM25 570q-23 0 -41.5 17t-18.5 43t18.5 43t41.5 17t41.5 -17t18.5 -43t-18.5 -43t-41.5 -17zM225 570q-23 0 -41.5 17t-18.5 43t18.5 43t41.5 17t41.5 -17t18.5 -43t-18.5 -43t-41.5 -17z" />
    <glyph glyph-name="uni0458" unicode="&#x458;" horiz-adv-x="250" 
d="M25 -210q-17 0 -30.5 2t-23.5 5q-11 4 -21 8v95q7 -4 16 -8q17 -7 39 -7q70 0 70 75v520h100v-530q0 -79 -39 -119.5t-111 -40.5zM125 570q-23 0 -41.5 17t-18.5 43t18.5 43t41.5 17t41.5 -17t18.5 -43t-18.5 -43t-41.5 -17z" />
    <glyph glyph-name="uni0459" unicode="&#x459;" horiz-adv-x="805" 
d="M55 -10q-25 0 -43 5q-10 2 -17 5v95q6 -2 12 -3q5 -1 11 -1.5t12 -0.5q21 0 37.5 9t28 35.5t18 75.5t6.5 130v140h360v-160h110q41 0 74.5 -12.5t57 -34t36 -50.5t12.5 -63t-12.5 -63t-36 -50.5t-57 -34t-74.5 -12.5h-210v385h-160v-45q0 -105 -12.5 -173t-34.5 -107
t-52 -54.5t-66 -15.5zM590 90q38 0 59 20t21 50t-21 50t-59 20h-110v-140h110z" />
    <glyph glyph-name="uni045A" unicode="&#x45a;" horiz-adv-x="810" 
d="M70 480h100v-160h215v160h100v-160h110q41 0 74.5 -12.5t57 -34t36 -50.5t12.5 -63t-12.5 -63t-36 -50.5t-57 -34t-74.5 -12.5h-210v230h-215v-230h-100v480zM595 90q38 0 59 20t21 50t-21 50t-59 20h-110v-140h110z" />
    <glyph glyph-name="uni045B" unicode="&#x45b;" horiz-adv-x="595" 
d="M85 530h-85v95h85v75h100v-75h130v-95h-130v-145q15 22 37 40q19 15 47 27.5t66 12.5q41 0 76 -14.5t60.5 -41.5t39.5 -66t14 -88v-255h-100v255q0 53 -30.5 84t-79.5 31q-28 0 -52 -10t-41 -27.5t-27 -42.5t-10 -55v-235h-100v530z" />
    <glyph glyph-name="uni045C" unicode="&#x45c;" horiz-adv-x="515" 
d="M70 480h100v-220l205 220h125l-185 -195l200 -285h-115l-150 215l-80 -85v-130h-100v480zM315 700h105l-105 -140h-75z" />
    <glyph glyph-name="uni045D" unicode="&#x45d;" 
d="M70 480h100v-320l250 320h90v-480h-100v320l-250 -320h-90v480zM150 700h105l75 -140h-75z" />
    <glyph glyph-name="uni045E" unicode="&#x45e;" horiz-adv-x="510" 
d="M115 -210q-17 0 -30.5 2t-23.5 5q-11 4 -21 8v95q7 -4 17 -8q8 -3 18.5 -5t24.5 -2q30 0 51.5 17.5t33.5 47.5l20 50l-195 480h110l135 -355l135 355h110l-210 -535q-30 -76 -72.5 -115.5t-102.5 -39.5zM255 560q-32 0 -58.5 10.5t-46 29.5t-30 44.5t-10.5 55.5h75
q0 -30 20 -50t50 -20t50 20t20 50h75q0 -30 -10.5 -55.5t-30 -44.5t-46 -29.5t-58.5 -10.5z" />
    <glyph glyph-name="uni045F" unicode="&#x45f;" horiz-adv-x="570" 
d="M235 0h-165v480h100v-385h230v385h100v-480h-165v-120h-100v120z" />
    <glyph glyph-name="uni0462" unicode="&#x462;" horiz-adv-x="700" 
d="M140 525h-140v95h140v80h110v-80h190v-95h-190v-95h170q52 0 95.5 -16.5t74.5 -46t48 -68.5t17 -84t-17 -84t-48 -68.5t-74.5 -46t-95.5 -16.5h-280v525zM420 100q57 0 91 33t34 82t-34 82t-91 33h-170v-230h170z" />
    <glyph glyph-name="uni0463" unicode="&#x463;" horiz-adv-x="550" 
d="M120 405h-120v90h120v205h100v-205h150v-90h-150v-75h110q43 0 77.5 -12.5t58.5 -34.5t36.5 -52t12.5 -66t-12.5 -66t-36.5 -52t-58.5 -34.5t-77.5 -12.5h-210v405zM330 90q42 0 63.5 20.5t21.5 54.5t-21.5 54.5t-63.5 20.5h-110v-150h110z" />
    <glyph glyph-name="uni046A" unicode="&#x46a;" horiz-adv-x="820" 
d="M55 95q0 69 16 121.5t45.5 90t71 61.5t92.5 37l-210 225v70h680v-70l-210 -225q51 -13 92.5 -37t71 -61.5t45.5 -90t16 -121.5v-95h-110v95q0 102 -51.5 156.5t-138.5 58.5v-310h-110v310q-87 -4 -138.5 -58.5t-51.5 -156.5v-95h-110v95zM580 600h-340l170 -185z" />
    <glyph glyph-name="uni046B" unicode="&#x46b;" horiz-adv-x="660" 
d="M30 10q0 54 14 96.5t39.5 73.5t60.5 51t76 29l-155 155v65h530v-65l-155 -155q41 -9 76 -29t60.5 -51t39.5 -73.5t14 -96.5v-10h-100v10q0 83 -41 127t-109 48v-185h-100v185q-68 -4 -109 -48t-41 -127v-10h-100v10zM450 395h-240l120 -120z" />
    <glyph glyph-name="uni0472" unicode="&#x472;" horiz-adv-x="850" 
d="M425 -10q-79 0 -146.5 28t-117 77t-78 114.5t-28.5 140.5t28.5 140.5t78 114.5t117 77t146.5 28t146.5 -28t117 -77t78 -114.5t28.5 -140.5t-28.5 -140.5t-78 -114.5t-117 -77t-146.5 -28zM425 90q52 0 96.5 17.5t78.5 48t55.5 71.5t29.5 88q-17 -9 -38 -15
q-18 -6 -42.5 -10.5t-54.5 -4.5q-38 0 -70.5 6t-62.5 13.5t-58.5 14t-58.5 6.5t-54 -5t-41 -10q-20 -7 -35 -15q7 -39 29 -76t55.5 -65.5t76.5 -46t94 -17.5zM550 375q30 0 54 4.5t41 10.5q19 6 35 15q-8 39 -29.5 76t-55 65.5t-76.5 46t-94 17.5q-53 0 -97 -17.5t-78 -48
t-56 -71.5t-29 -88q16 8 37 15q18 5 43 10t55 5q37 0 69.5 -6.5t62.5 -14t59 -13.5t59 -6z" />
    <glyph glyph-name="uni0473" unicode="&#x473;" 
d="M290 -10q-53 0 -98.5 19.5t-79 53t-53 79t-19.5 98.5q0 52 19.5 98t53 79.5t79 53t98.5 19.5q52 0 98 -19.5t79.5 -53t53 -79.5t19.5 -98q0 -53 -19.5 -98.5t-53 -79t-79.5 -53t-98 -19.5zM290 85q30 0 55 9.5t43.5 25.5t30.5 36.5t16 43.5q-11 -6 -23 -10q-11 -4 -24 -7
t-28 -3q-23 0 -39.5 4.5t-32 10.5t-31.5 10.5t-37 4.5q-15 0 -28.5 -2.5t-24.5 -5.5q-12 -4 -22 -7q6 -21 18 -40.5t30 -35t42.5 -25t54.5 -9.5zM360 270q15 0 28 2t24 5q12 4 23 8q-6 21 -18 40.5t-30 35t-42.5 25t-54.5 9.5t-55 -9.5t-44 -25.5t-30.5 -37t-15.5 -43
q10 6 22 10q11 4 24.5 7t28.5 3q22 0 39 -4.5t32.5 -10.5t31.5 -10.5t37 -4.5z" />
    <glyph glyph-name="uni0474" unicode="&#x474;" horiz-adv-x="705" 
d="M15 700h115l215 -560l145 410q15 43 31.5 73.5t37 49.5t45 28t56.5 9q15 0 27.5 -2.5t22.5 -5.5q11 -4 20 -7l-25 -100l-10 2t-11 2t-14 1q-26 0 -42 -15.5t-28 -49.5l-195 -535h-120z" />
    <glyph glyph-name="uni0475" unicode="&#x475;" horiz-adv-x="540" 
d="M10 480h110l135 -355l90 245q25 68 56 96.5t84 28.5q17 0 30 -2.5t22 -5.5q11 -4 18 -7l-30 -90q-3 1 -7 2q-3 1 -8 2t-10 1q-19 0 -30.5 -10.5t-19.5 -29.5l-140 -355h-110z" />
    <glyph glyph-name="uni048A" unicode="&#x48a;" horiz-adv-x="795" 
d="M660 0h-75v515l-385 -515h-100v700h110v-515l385 515h100v-595h105v-15l-105 -240h-85zM395 790q-32 0 -58.5 10.5t-46 29.5t-30 44.5t-10.5 55.5h75q0 -30 20 -50t50 -20t50 20t20 50h75q0 -30 -10.5 -55.5t-30 -44.5t-46 -29.5t-58.5 -10.5z" />
    <glyph glyph-name="uni048B" unicode="&#x48b;" horiz-adv-x="590" 
d="M475 0h-65v320l-250 -320h-90v480h100v-320l250 320h90v-385h90v-14l-90 -201h-75zM290 566q-32 0 -58.5 10.5t-46 29.5t-30 44.5t-10.5 55.5h75q0 -30 20 -50t50 -20t50 20t20 50h75q0 -30 -10.5 -55.5t-30 -44.5t-46 -29.5t-58.5 -10.5z" />
    <glyph glyph-name="uni048C" unicode="&#x48c;" horiz-adv-x="700" 
d="M140 525h-140v95h140v80h110v-80h190v-95h-190v-95h170q52 0 95.5 -16.5t74.5 -46t48 -68.5t17 -84t-17 -84t-48 -68.5t-74.5 -46t-95.5 -16.5h-280v525zM420 100q57 0 91 33t34 82t-34 82t-91 33h-170v-230h170z" />
    <glyph glyph-name="uni048D" unicode="&#x48d;" horiz-adv-x="550" 
d="M120 405h-120v90h120v205h100v-205h150v-90h-150v-75h110q43 0 77.5 -12.5t58.5 -34.5t36.5 -52t12.5 -66t-12.5 -66t-36.5 -52t-58.5 -34.5t-77.5 -12.5h-210v405zM330 90q42 0 63.5 20.5t21.5 54.5t-21.5 54.5t-63.5 20.5h-110v-150h110z" />
    <glyph glyph-name="uni048E" unicode="&#x48e;" horiz-adv-x="660" 
d="M100 700h280q51 0 94 -17.5t74.5 -48t49 -71.5t17.5 -88q0 -49 -15.5 -83.5t-34.5 -57.5q-22 -26 -50 -44l55 -80l-80 -55l-65 100q-6 -2 -13 -3q-6 -1 -14.5 -1.5t-17.5 -0.5h-170v-250h-110v700zM360 350l-40 60l80 55l60 -90q12 11 22 27q8 13 15.5 31.5t7.5 41.5
q0 26 -9.5 49t-26.5 40t-40 26.5t-49 9.5h-170v-250h150z" />
    <glyph glyph-name="uni048F" unicode="&#x48f;" horiz-adv-x="600" 
d="M70 480h100v-70q15 22 39 40q20 15 51 27.5t75 12.5q45 0 86 -18.5t71.5 -52t49 -79.5t18.5 -100q0 -45 -12 -80.5t-26 -59.5q-17 -29 -37 -50l55 -80l-70 -45l-55 80q-11 -4 -23 -8q-11 -3 -25.5 -5t-31.5 -2q-44 0 -75 12.5t-51 27.5q-24 18 -39 40v-280h-100v690z
M315 85q9 0 16.5 0.5t12.5 1.5q6 1 11 3l-55 80l70 45l55 -80q9 13 17 30q7 14 12.5 33t5.5 42q0 34 -11.5 62.5t-31 49t-46 32t-56.5 11.5t-56.5 -11.5t-46 -32t-31 -49t-11.5 -62.5t11.5 -62.5t31 -49t46 -32t56.5 -11.5z" />
    <glyph glyph-name="uni0490" unicode="&#x490;" horiz-adv-x="570" 
d="M100 700h345v140h105v-245h-340v-595h-110v700z" />
    <glyph glyph-name="uni0491" unicode="&#x491;" horiz-adv-x="430" 
d="M70 480h245v120h95v-215h-240v-385h-100v480z" />
    <glyph glyph-name="uni0492" unicode="&#x492;" horiz-adv-x="585" 
d="M115 295h-95v105h95v300h450v-105h-340v-195h190v-105h-190v-295h-110v295z" />
    <glyph glyph-name="uni0493" unicode="&#x493;" horiz-adv-x="435" 
d="M75 180h-75v90h75v210h340v-95h-240v-115h135v-90h-135v-180h-100v180z" />
    <glyph glyph-name="uni0494" unicode="&#x494;" horiz-adv-x="665" 
d="M350 -40q75 0 120 46t45 129q0 75 -41.5 117.5t-113.5 42.5q-38 0 -66 -8.5t-47 -19.5q-22 -12 -37 -27v-240h-110v700h450v-105h-340v-240q17 12 42 22q20 8 50 15.5t68 7.5q58 0 105 -18t80.5 -52.5t51.5 -83.5t18 -111q0 -64 -20 -115.5t-56 -88t-86.5 -56.5
t-112.5 -20v105z" />
    <glyph glyph-name="uni0495" unicode="&#x495;" horiz-adv-x="510" 
d="M255 -120q57 0 91 37.5t34 112.5q0 64 -33 99.5t-82 35.5q-23 0 -40.5 -5.5t-29.5 -12.5q-14 -8 -25 -17v-130h-100v480h340v-95h-240v-155q12 8 28 15q14 5 33 10t44 5q43 0 80.5 -16.5t65 -46.5t43.5 -72.5t16 -94.5q0 -58 -16 -103.5t-45.5 -77t-71 -48t-92.5 -16.5
v95z" />
    <glyph glyph-name="uni0496" unicode="&#x496;" horiz-adv-x="995" 
d="M895 0h-50l-230 330l-70 -75v-255h-110v255l-70 75l-230 -330h-135l290 410l-270 290h140l275 -295v295h110v-295l275 295h140l-270 -290l220 -310h95v-250h-110v150z" />
    <glyph glyph-name="uni0497" unicode="&#x497;" horiz-adv-x="765" 
d="M665 0h-40l-150 215l-55 -60v-155h-100v155l-55 60l-150 -215h-115l200 285l-185 195h125l180 -195v195h100v-195l180 195h125l-185 -195l135 -190h90v-215h-100v120z" />
    <glyph glyph-name="uni0498" unicode="&#x498;" horiz-adv-x="595" 
d="M225 -5q-53 8 -91 25t-64 35q-30 21 -50 45l75 75q19 -25 46 -43q23 -16 57 -29t82 -13q37 0 66 9.5t49 25.5t30 36.5t10 43.5q0 21 -10 40.5t-30 35t-49 25t-66 9.5h-90v105h90q32 0 56 8t40.5 21t25 30.5t8.5 36.5q0 37 -33 65.5t-97 28.5q-40 0 -70.5 -12t-51.5 -26
q-25 -17 -43 -37l-75 75q26 28 62 50q31 19 75 34.5t103 15.5q58 0 103 -15t75.5 -40t46 -59t15.5 -71q0 -44 -17.5 -73.5t-37.5 -47.5q-25 -21 -55 -34q37 -13 67 -36q26 -20 47 -52.5t21 -81.5q0 -39 -15 -74t-43 -62t-66.5 -45t-85.5 -24v-142h-110v142z" />
    <glyph glyph-name="uni0499" unicode="&#x499;" horiz-adv-x="440" 
d="M165 -5q-38 5 -66 18.5t-47 27.5q-22 16 -37 34l65 65q15 -17 35 -30q17 -11 41 -20.5t54 -9.5q42 0 63.5 19.5t21.5 45.5q0 23 -21.5 41.5t-63.5 18.5h-65v90h60q38 0 56.5 15.5t18.5 34.5q0 23 -18.5 39t-56.5 16q-26 0 -47.5 -6.5t-36.5 -14.5q-18 -9 -31 -20l-65 65
q19 18 45 33q23 12 56.5 22.5t78.5 10.5q43 0 76.5 -11.5t56.5 -30t35 -43t12 -50.5q0 -29 -11.5 -48.5t-26 -32t-27 -18t-15.5 -6.5q2 -1 17 -6.5t32.5 -19t31.5 -35t14 -54.5q0 -26 -10 -49t-27.5 -41.5t-42.5 -31t-55 -18.5v-115h-100v115z" />
    <glyph glyph-name="uni049A" unicode="&#x49a;" horiz-adv-x="700" 
d="M600 0h-50l-230 330l-110 -120v-210h-110v700h110v-340l315 340h140l-270 -290l220 -310h95v-250h-110v150z" />
    <glyph glyph-name="uni049B" unicode="&#x49b;" horiz-adv-x="540" 
d="M440 0h-40l-150 215l-80 -85v-130h-100v480h100v-220l205 220h125l-185 -195l135 -190h90v-215h-100v120z" />
    <glyph glyph-name="uni049C" unicode="&#x49c;" horiz-adv-x="705" 
d="M100 700h110v-295h45v130h90v-130h30l190 295h125l-225 -345l250 -355h-125l-215 305h-30v-130h-90v130h-45v-305h-110v700z" />
    <glyph glyph-name="uni049D" unicode="&#x49d;" horiz-adv-x="560" 
d="M70 480h100v-195h35v100h80v-100h15l120 195h110l-145 -235l165 -245h-115l-130 195h-20v-95h-80v95h-35v-195h-100v480z" />
    <glyph glyph-name="uni049E" unicode="&#x49e;" horiz-adv-x="705" 
d="M120 540h-120v90h120v70h110v-70h120v-90h-120v-180l315 340h140l-270 -290l290 -410h-135l-230 330l-110 -120v-210h-110v540z" />
    <glyph glyph-name="uni049F" unicode="&#x49f;" horiz-adv-x="530" 
d="M85 535h-85v90h85v75h100v-75h130v-90h-130v-275l205 220h125l-185 -195l200 -285h-115l-150 215l-80 -85v-130h-100v535z" />
    <glyph glyph-name="uni04A0" unicode="&#x4a0;" horiz-adv-x="755" 
d="M170 595h-170v105h280v-340l315 340h140l-270 -290l290 -410h-135l-230 330l-110 -120v-210h-110v595z" />
    <glyph glyph-name="uni04A1" unicode="&#x4a1;" horiz-adv-x="545" 
d="M100 385h-100v95h200v-220l205 220h125l-185 -195l200 -285h-115l-150 215l-80 -85v-130h-100v385z" />
    <glyph glyph-name="uni04A2" unicode="&#x4a2;" horiz-adv-x="775" 
d="M640 0h-85v305h-345v-305h-110v700h110v-295h345v295h110v-595h85v-255h-110v150z" />
    <glyph glyph-name="uni04A3" unicode="&#x4a3;" horiz-adv-x="595" 
d="M475 0h-70v200h-235v-200h-100v480h100v-190h235v190h100v-385h70v-215h-100v120z" />
    <glyph glyph-name="uni04A4" unicode="&#x4a4;" horiz-adv-x="990" 
d="M100 700h110v-295h330v295h430v-105h-320v-595h-110v305h-330v-305h-110v700z" />
    <glyph glyph-name="uni04A5" unicode="&#x4a5;" horiz-adv-x="735" 
d="M70 480h100v-190h225v190h320v-95h-220v-385h-100v200h-225v-200h-100v480z" />
    <glyph glyph-name="uni04A6" unicode="&#x4a6;" horiz-adv-x="1115" 
d="M800 -40q75 0 120 46t45 129q0 75 -41.5 117.5t-113.5 42.5q-38 0 -66 -8.5t-47 -19.5q-22 -12 -37 -27v-240h-110v595h-340v-595h-110v700h560v-345q17 12 42 22q20 8 50 15.5t68 7.5q58 0 105 -18t80.5 -52.5t51.5 -83.5t18 -111q0 -64 -20 -115.5t-56 -88t-86.5 -56.5
t-112.5 -20v105z" />
    <glyph glyph-name="uni04A7" unicode="&#x4a7;" horiz-adv-x="840" 
d="M585 -120q57 0 91 37.5t34 112.5q0 64 -33 99.5t-82 35.5q-23 0 -40.5 -5.5t-29.5 -12.5q-14 -8 -25 -17v-130h-100v385h-230v-385h-100v480h430v-250q12 8 28 15q14 5 33 10t44 5q43 0 80.5 -16.5t65 -46.5t43.5 -72.5t16 -94.5q0 -58 -16 -103.5t-45.5 -77t-71 -48
t-92.5 -16.5v95z" />
    <glyph glyph-name="uni04A8" unicode="&#x4a8;" horiz-adv-x="865" 
d="M405 -10q-77 0 -142 26.5t-112.5 74.5t-74 114t-26.5 145t25 144.5t68 113t100 75t122 32.5v-95q-40 -4 -77 -24t-65.5 -54.5t-45.5 -82.5t-17 -109q0 -56 20 -104.5t53 -84t76.5 -56t90.5 -20.5q9 0 15.5 0.5t11.5 1.5t8 3q-36 28 -63 70q-23 35 -42.5 90t-19.5 130
q0 66 19 118.5t52 89.5t76.5 57t92.5 20t92.5 -20t76.5 -57t52 -89.5t19 -118.5q0 -75 -21 -130t-47 -90q-30 -42 -67 -70q3 -2 8 -3t11 -1.5t16 -0.5q30 0 51.5 6t35.5 14q17 9 28 20l50 -80q-16 -16 -40 -28q-20 -11 -52.5 -19t-77.5 -8q-32 0 -57 3.5t-42 8.5
q-20 5 -36 13q-18 -8 -41 -13q-20 -5 -46 -8.5t-58 -3.5zM550 125q36 21 65 56q24 30 44.5 78.5t20.5 120.5q0 47 -10.5 81.5t-28.5 57.5t-41.5 34.5t-49.5 11.5t-49.5 -11.5t-41.5 -34.5t-28.5 -57.5t-10.5 -81.5q0 -72 20 -120.5t45 -78.5q28 -35 65 -56z" />
    <glyph glyph-name="uni04A9" unicode="&#x4a9;" horiz-adv-x="660" 
d="M295 -10q-54 0 -101 19.5t-81 53.5t-53.5 81t-19.5 101q0 51 18 95t48 77t69 53.5t80 24.5v-85q-21 -4 -41.5 -17t-37 -34t-26.5 -49.5t-10 -64.5q0 -79 45 -125t120 -50q-20 20 -35 48q-14 24 -24.5 59t-10.5 83q0 43 13 78t36 60t54 38.5t67 13.5t67 -13.5t54 -38.5
t36 -60t13 -78q0 -48 -11 -83t-24 -59q-16 -28 -35 -48q30 2 51.5 10t35.5 17q17 11 28 23l55 -65q-16 -19 -38 -33q-19 -12 -46.5 -22t-65.5 -10q-30 0 -52.5 3t-37.5 7q-18 4 -30 10q-12 -6 -29 -10q-14 -4 -34.5 -7t-46.5 -3zM405 95q19 16 35 39q13 20 24 49.5t11 71.5
q0 53 -22 79t-48 26t-48 -26t-22 -79q0 -42 10.5 -71.5t24.5 -49.5q15 -23 35 -39z" />
    <glyph glyph-name="uni04AA" unicode="&#x4aa;" horiz-adv-x="745" 
d="M355 -5q-60 9 -114.5 39t-95.5 76.5t-65.5 107.5t-24.5 132q0 75 28.5 140.5t78 114.5t117 77t146.5 28q72 0 125 -21t89 -47q41 -30 71 -67l-70 -70q-21 29 -53 52q-27 20 -67.5 36.5t-94.5 16.5t-101.5 -20t-83 -55.5t-55.5 -83t-20 -101.5t20 -101.5t55.5 -83
t83 -55.5t101.5 -20t95 17t69 38q33 24 56 55l70 -70q-26 -35 -63 -63q-32 -25 -78.5 -47t-108.5 -30v-140h-110v145z" />
    <glyph glyph-name="uni04AB" unicode="&#x4ab;" horiz-adv-x="520" 
d="M235 -5q-39 9 -74.5 30.5t-62.5 53t-42.5 72t-15.5 89.5q0 52 19.5 98t53 79.5t79 53t98.5 19.5q51 0 88.5 -15t62.5 -33q29 -21 49 -47l-70 -65q-14 18 -33 32q-17 12 -41 22.5t-56 10.5t-59.5 -11.5t-47.5 -32t-31.5 -49t-11.5 -62.5t11.5 -62.5t31.5 -49t47.5 -32
t59.5 -11.5t57 10.5t42 24.5q20 15 36 35l70 -65q-17 -22 -41 -40q-20 -16 -50 -31.5t-69 -23.5v-115h-100v115z" />
    <glyph glyph-name="uni04AC" unicode="&#x4ac;" horiz-adv-x="570" 
d="M315 0h-85v595h-210v105h530v-105h-210v-490h85v-255h-110v150z" />
    <glyph glyph-name="uni04AD" unicode="&#x4ad;" horiz-adv-x="470" 
d="M255 0h-70v385h-165v95h430v-95h-165v-290h70v-215h-100v120z" />
    <glyph glyph-name="uni04AE" unicode="&#x4ae;" horiz-adv-x="650" 
d="M270 250l-265 450h125l195 -340l195 340h125l-265 -450v-250h-110v250z" />
    <glyph glyph-name="uni04AF" unicode="&#x4af;" horiz-adv-x="510" 
d="M205 -5l-195 485h110l135 -355l135 355h110l-195 -485v-205h-100v205z" />
    <glyph glyph-name="uni04B0" unicode="&#x4b0;" horiz-adv-x="650" 
d="M270 175h-160v100h145l-250 425h125l195 -340l195 340h125l-250 -425h145v-100h-160v-175h-110v175z" />
    <glyph glyph-name="uni04B1" unicode="&#x4b1;" horiz-adv-x="510" 
d="M205 -90h-110v90h110l-195 480h110l135 -355l135 355h110l-195 -480h110v-90h-110v-120h-100v120z" />
    <glyph glyph-name="uni04B2" unicode="&#x4b2;" horiz-adv-x="665" 
d="M565 0h-45l-190 285l-190 -285h-130l250 365l-230 335h130l170 -255l170 255h130l-230 -335l180 -265h95v-250h-110v150z" />
    <glyph glyph-name="uni04B3" unicode="&#x4b3;" horiz-adv-x="515" 
d="M415 0h-40l-125 175l-125 -175h-115l180 250l-165 230h115l110 -155l110 155h115l-165 -230l115 -155h90v-215h-100v120z" />
    <glyph glyph-name="uni04B4" unicode="&#x4b4;" horiz-adv-x="895" 
d="M760 0h-530v595h-210v105h505v-105h-185v-490h335v595h110v-595h85v-255h-110v150z" />
    <glyph glyph-name="uni04B5" unicode="&#x4b5;" horiz-adv-x="705" 
d="M580 0h-395v385h-165v95h395v-95h-130v-290h225v385h100v-385h70v-215h-100v120z" />
    <glyph glyph-name="uni04B6" unicode="&#x4b6;" horiz-adv-x="735" 
d="M600 0h-85v280q-23 -14 -51 -25q-24 -10 -57 -17.5t-72 -7.5q-113 0 -179 67.5t-66 192.5v210h110v-210q0 -72 41.5 -113.5t113.5 -41.5q35 0 65 9.5t51 20.5q25 13 44 30v305h110v-595h85v-255h-110v150z" />
    <glyph glyph-name="uni04B7" unicode="&#x4b7;" horiz-adv-x="560" 
d="M440 0h-70v175q-16 -10 -35 -18q-17 -7 -41 -12t-54 -5q-39 0 -72 13.5t-57 39.5t-37.5 63t-13.5 84v140h100v-140q0 -49 27.5 -77t72.5 -28q26 0 46.5 5t34.5 12q17 8 29 18v210h100v-385h70v-215h-100v120z" />
    <glyph glyph-name="uni04B8" unicode="&#x4b8;" horiz-adv-x="725" 
d="M515 280q-12 -9 -28 -17q-14 -7 -33.5 -15t-43.5 -13v-110h-95v105q-51 4 -92.5 22.5t-71 51.5t-45.5 79.5t-16 106.5v210h110v-210q0 -68 33 -105t82 -45v125h95v-125q24 5 43.5 14.5t33.5 18.5q16 11 28 22v305h110v-700h-110v280z" />
    <glyph glyph-name="uni04B9" unicode="&#x4b9;" horiz-adv-x="540" 
d="M370 175q-6 -5 -14 -9q-15 -8 -41 -16v-80h-80v70q-38 0 -70 13.5t-55 39.5t-36.5 63t-13.5 84v140h100v-140q0 -45 22.5 -71t52.5 -34v90h80v-80q26 8 41 16q8 4 14 9v210h100v-480h-100v175z" />
    <glyph glyph-name="uni04BA" unicode="&#x4ba;" horiz-adv-x="715" 
d="M100 700h110v-280q23 14 51 25q24 9 56.5 17t72.5 8q113 0 179 -67.5t66 -192.5v-210h-110v210q0 72 -41.5 113.5t-113.5 41.5q-36 0 -65.5 -9.5t-50.5 -20.5q-25 -13 -44 -30v-305h-110v700z" />
    <glyph glyph-name="uni04BB" unicode="&#x4bb;" horiz-adv-x="585" 
d="M75 700h100v-290q15 22 37 40q19 15 47 27.5t66 12.5q41 0 76 -14.5t60.5 -41.5t39.5 -66t14 -88v-280h-100v280q0 53 -30.5 84t-79.5 31q-28 0 -52 -10t-41 -27.5t-27 -42.5t-10 -55v-260h-100v700z" />
    <glyph glyph-name="uni04BC" unicode="&#x4bc;" horiz-adv-x="905" 
d="M530 -10q-75 0 -138.5 25.5t-110.5 70.5t-74.5 106.5t-31.5 132.5h-10q-83 0 -124 36.5t-41 93.5q0 22 5 37q2 7 5 13h90q-2 -4 -3 -9t-1.5 -10.5t-0.5 -10.5q0 -26 16 -40.5t54 -14.5h15q11 62 39.5 115t72 92t101.5 61t127 22q73 0 136 -26.5t109.5 -74.5t73 -114
t26.5 -145v-25h-580q4 -51 23.5 -94t52 -74.5t75.5 -49t94 -17.5q53 0 93 14t67 31q32 19 55 45l70 -70q-31 -34 -73 -60q-36 -23 -89.5 -41.5t-122.5 -18.5zM745 420q-4 36 -22.5 70t-48.5 60.5t-69.5 43t-84.5 16.5t-84.5 -16.5t-69.5 -43t-48.5 -60.5t-22.5 -70h450z" />
    <glyph glyph-name="uni04BD" unicode="&#x4bd;" horiz-adv-x="650" 
d="M380 -10q-51 0 -93.5 16.5t-74.5 46t-53.5 68.5t-28.5 84q-64 0 -97 30.5t-33 79.5q0 8 0.5 14t1.5 11t3 10h70v-15q0 -23 12.5 -34t42.5 -11h5q9 41 30.5 77.5t52 63.5t70.5 43t87 16q51 0 94 -17.5t74.5 -49t49 -74.5t17.5 -94q0 -11 -1 -20t-2 -16q-1 -8 -2 -14h-370
q4 -24 16.5 -46t32 -38.5t45.5 -26t56 -9.5q32 0 58 10t44 22q21 14 38 33l60 -70q-20 -26 -50 -45q-26 -17 -64 -31t-91 -14zM505 290q-11 49 -44 79.5t-86 30.5q-57 0 -91 -30.5t-49 -79.5h270z" />
    <glyph glyph-name="uni04BE" unicode="&#x4be;" horiz-adv-x="905" 
d="M470 -5q-58 7 -110 34.5t-92 70.5t-64.5 100t-28.5 125h-10q-83 0 -124 36.5t-41 93.5q0 22 5 37q2 7 5 13h90q-2 -4 -3 -9t-1.5 -10.5t-0.5 -10.5q0 -26 16 -40.5t54 -14.5h15q11 62 39.5 115t72 92t101.5 61t127 22q73 0 136 -26.5t109.5 -74.5t73 -114t26.5 -145v-25
h-580q4 -51 23.5 -94t52 -74.5t75.5 -49t94 -17.5q53 0 93 14t67 31q32 19 55 45l70 -70q-25 -28 -59 -52q-29 -20 -73.5 -39t-102.5 -24v-145h-110v145zM745 420q-4 36 -22.5 70t-48.5 60.5t-69.5 43t-84.5 16.5t-84.5 -16.5t-69.5 -43t-48.5 -60.5t-22.5 -70h450z" />
    <glyph glyph-name="uni04BF" unicode="&#x4bf;" horiz-adv-x="650" 
d="M320 -5q-72 19 -123.5 73t-66.5 137q-64 0 -97 30.5t-33 79.5q0 8 0.5 14t1.5 11t3 10h70v-15q0 -23 12.5 -34t42.5 -11h5q9 41 30.5 77.5t52 63.5t70.5 43t87 16q51 0 94 -17.5t74.5 -49t49 -74.5t17.5 -94q0 -11 -1 -20t-2 -16q-1 -8 -2 -14h-370q4 -24 16.5 -46
t32 -38.5t45.5 -26t56 -9.5q32 0 58 10t44 22q21 14 38 33l60 -70q-17 -21 -41 -39q-21 -15 -51.5 -28.5t-72.5 -17.5v-115h-100v115zM505 290q-11 49 -44 79.5t-86 30.5q-57 0 -91 -30.5t-49 -79.5h270z" />
    <glyph glyph-name="uni04C0" unicode="&#x4c0;" horiz-adv-x="310" 
d="M100 700h110v-700h-110v700z" />
    <glyph glyph-name="uni04C1" unicode="&#x4c1;" horiz-adv-x="980" 
d="M290 410l-270 290h140l275 -295v295h110v-295l275 295h140l-270 -290l290 -410h-135l-230 330l-70 -75v-255h-110v255l-70 75l-230 -330h-135zM490 790q-32 0 -58.5 10.5t-46 29.5t-30 44.5t-10.5 55.5h75q0 -30 20 -50t50 -20t50 20t20 50h75q0 -30 -10.5 -55.5
t-30 -44.5t-46 -29.5t-58.5 -10.5z" />
    <glyph glyph-name="uni04C2" unicode="&#x4c2;" horiz-adv-x="740" 
d="M200 285l-185 195h125l180 -195v195h100v-195l180 195h125l-185 -195l200 -285h-115l-150 215l-55 -60v-155h-100v155l-55 60l-150 -215h-115zM370 560q-32 0 -58.5 10.5t-46 29.5t-30 44.5t-10.5 55.5h75q0 -30 20 -50t50 -20t50 20t20 50h75q0 -30 -10.5 -55.5
t-30 -44.5t-46 -29.5t-58.5 -10.5z" />
    <glyph glyph-name="uni04C3" unicode="&#x4c3;" horiz-adv-x="715" 
d="M390 -110q36 0 67 14t54 41.5t36 69t13 95.5q0 49 -11.5 85.5t-32 61t-49 36.5t-62.5 12q-36 0 -63.5 -8.5t-50.5 -23t-42.5 -33.5t-38.5 -40v-200h-110v700h110v-340l314 340h141l-275 -295h20q124 0 194.5 -74.5t70.5 -220.5q0 -77 -21.5 -137.5t-59.5 -102t-90 -63.5
t-114 -22v105z" />
    <glyph glyph-name="uni04C4" unicode="&#x4c4;" horiz-adv-x="540" 
d="M285 -120q57 0 91 37.5t34 112.5t-34 112.5t-91 37.5q-26 0 -47.5 -8t-36.5 -17q-18 -11 -31 -25v-130h-100v480h100v-220l205 220h125l-195 -205q94 -8 149.5 -68t55.5 -177q0 -121 -59.5 -183t-165.5 -62v95z" />
    <glyph glyph-name="uni04C5" unicode="&#x4c5;" horiz-adv-x="750" 
d="M615 0h-75v595h-255v-105q0 -154 -16 -251t-44.5 -152.5t-68 -76t-86.5 -20.5q-17 0 -30.5 2t-23.5 5q-11 4 -21 8v100q7 -3 16 -5q17 -5 39 -5q24 0 47 14.5t40 57.5t27.5 120t10.5 203v210h475v-595h105v-15l-105 -240h-85z" />
    <glyph glyph-name="uni04C6" unicode="&#x4c6;" horiz-adv-x="570" 
d="M455 0h-65v385h-170v-45q0 -105 -12.5 -173t-34.5 -107t-52 -54.5t-66 -15.5q-25 0 -43 5q-10 2 -17 5v95q6 -2 12 -3q5 -1 11 -1.5t12 -0.5q21 0 37.5 9t28 35.5t18 75.5t6.5 130v140h370v-385h90v-14l-90 -201h-75z" />
    <glyph glyph-name="uni04C7" unicode="&#x4c7;" horiz-adv-x="765" 
d="M520 -215q-19 0 -34.5 2t-26.5 5q-13 4 -24 8v100q7 -4 16 -8q17 -7 39 -7q30 0 47.5 18.5t17.5 56.5v345h-345v-305h-110v700h110v-295h345v295h110v-750q0 -83 -38.5 -124t-106.5 -41z" />
    <glyph glyph-name="uni04C8" unicode="&#x4c8;" horiz-adv-x="575" 
d="M365 -215q-16 0 -28.5 2t-21.5 5q-11 4 -20 8v95q6 -3 14 -5q15 -5 36 -5q60 0 60 65v250h-235v-200h-100v480h100v-190h235v190h100v-541q0 -75 -38 -114.5t-102 -39.5z" />
    <glyph glyph-name="uni04C9" unicode="&#x4c9;" horiz-adv-x="765" 
d="M630 0h-75v305h-345v-305h-110v700h110v-295h345v295h110v-595h105v-15l-105 -240h-85z" />
    <glyph glyph-name="uni04CA" unicode="&#x4ca;" horiz-adv-x="585" 
d="M470 0h-65v200h-235v-200h-100v480h100v-190h235v190h100v-385h90v-14l-90 -201h-75z" />
    <glyph glyph-name="uni04CB" unicode="&#x4cb;" horiz-adv-x="725" 
d="M430 105h85v175q-23 -14 -51 -25q-24 -10 -57 -17.5t-72 -7.5q-113 0 -179 67.5t-66 192.5v210h110v-210q0 -72 41.5 -113.5t113.5 -41.5q35 0 65 9.5t51 20.5q25 13 44 30v305h110v-700h-85v-150h-110v255z" />
    <glyph glyph-name="uni04CC" unicode="&#x4cc;" horiz-adv-x="540" 
d="M300 95h70v80q-16 -10 -35 -18q-17 -7 -41 -12t-54 -5q-39 0 -72 13.5t-57 39.5t-37.5 63t-13.5 84v140h100v-140q0 -49 27.5 -77t72.5 -28q26 0 46.5 5t34.5 12q17 8 29 18v210h100v-480h-70v-120h-100v215z" />
    <glyph glyph-name="uni04CD" unicode="&#x4cd;" horiz-adv-x="930" 
d="M795 0h-75v515l-255 -325l-255 325v-515h-110v700h100l265 -340l265 340h100v-595h105v-15l-105 -240h-85z" />
    <glyph glyph-name="uni04CE" unicode="&#x4ce;" horiz-adv-x="660" 
d="M545 0h-65v320l-155 -190l-155 190v-320h-100v480h85l170 -210l170 210h85v-385h90v-14l-90 -201h-75z" />
    <glyph glyph-name="uni04CF" unicode="&#x4cf;" horiz-adv-x="250" 
d="M75 700h100v-700h-100v700z" />
    <glyph glyph-name="uni04D0" unicode="&#x4d0;" horiz-adv-x="700" 
d="M290 700h120l280 -700h-115l-70 180h-310l-70 -180h-115zM465 280l-115 290l-115 -290h230zM350 790q-32 0 -58.5 10.5t-46 29.5t-30 44.5t-10.5 55.5h75q0 -30 20 -50t50 -20t50 20t20 50h75q0 -30 -10.5 -55.5t-30 -44.5t-46 -29.5t-58.5 -10.5z" />
    <glyph glyph-name="uni04D1" unicode="&#x4d1;" horiz-adv-x="520" 
d="M195 -10q-36 0 -65.5 11.5t-50.5 30.5t-32.5 44.5t-11.5 53.5q0 60 38 99.5t102 50.5l175 30q0 38 -27.5 64t-72.5 26q-29 0 -51.5 -10.5t-39.5 -22.5q-19 -14 -34 -32l-65 65q20 25 48 45q24 17 59 31t83 14q45 0 82 -14t63 -39t40.5 -59t14.5 -73v-305h-100v70
q-15 -22 -38 -40q-20 -15 -49 -27.5t-68 -12.5zM215 75q28 0 52.5 10.5t43 29.5t29 44.5t10.5 55.5v15l-140 -25q-38 -7 -56.5 -24.5t-18.5 -40.5q0 -26 21 -45.5t59 -19.5zM265 560q-32 0 -58.5 10.5t-46 29.5t-30 44.5t-10.5 55.5h75q0 -30 20 -50t50 -20t50 20t20 50h75
q0 -30 -10.5 -55.5t-30 -44.5t-46 -29.5t-58.5 -10.5z" />
    <glyph glyph-name="uni04D2" unicode="&#x4d2;" horiz-adv-x="700" 
d="M290 700h120l280 -700h-115l-70 180h-310l-70 -180h-115zM465 280l-115 290l-115 -290h230zM250 790q-23 0 -41.5 17t-18.5 43t18.5 43t41.5 17t41.5 -17t18.5 -43t-18.5 -43t-41.5 -17zM450 790q-23 0 -41.5 17t-18.5 43t18.5 43t41.5 17t41.5 -17t18.5 -43t-18.5 -43
t-41.5 -17z" />
    <glyph glyph-name="uni04D3" unicode="&#x4d3;" horiz-adv-x="520" 
d="M195 -10q-36 0 -65.5 11.5t-50.5 30.5t-32.5 44.5t-11.5 53.5q0 60 38 99.5t102 50.5l175 30q0 38 -27.5 64t-72.5 26q-29 0 -51.5 -10.5t-39.5 -22.5q-19 -14 -34 -32l-65 65q20 25 48 45q24 17 59 31t83 14q45 0 82 -14t63 -39t40.5 -59t14.5 -73v-305h-100v70
q-15 -22 -38 -40q-20 -15 -49 -27.5t-68 -12.5zM215 75q28 0 52.5 10.5t43 29.5t29 44.5t10.5 55.5v15l-140 -25q-38 -7 -56.5 -24.5t-18.5 -40.5q0 -26 21 -45.5t59 -19.5zM165 570q-23 0 -41.5 17t-18.5 43t18.5 43t41.5 17t41.5 -17t18.5 -43t-18.5 -43t-41.5 -17z
M365 570q-23 0 -41.5 17t-18.5 43t18.5 43t41.5 17t41.5 -17t18.5 -43t-18.5 -43t-41.5 -17z" />
    <glyph glyph-name="uni04D6" unicode="&#x4d6;" horiz-adv-x="650" 
d="M100 700h495v-105h-385v-180h305v-105h-305v-205h395v-105h-505v700zM355 790q-32 0 -58.5 10.5t-46 29.5t-30 44.5t-10.5 55.5h75q0 -30 20 -50t50 -20t50 20t20 50h75q0 -30 -10.5 -55.5t-30 -44.5t-46 -29.5t-58.5 -10.5z" />
    <glyph glyph-name="uni04D7" unicode="&#x4d7;" horiz-adv-x="560" 
d="M290 -10q-53 0 -98.5 19.5t-79 53t-53 79t-19.5 98.5q0 52 19.5 98t52.5 79.5t77.5 53t95.5 19.5t94 -17.5t74.5 -49t49 -74.5t17.5 -94q0 -11 -1 -20t-2 -16q-1 -8 -2 -14h-370q4 -24 16.5 -46t32 -38.5t45.5 -26t56 -9.5q32 0 58 10t44 22q21 14 38 33l60 -70
q-20 -26 -50 -45q-26 -17 -64 -31t-91 -14zM415 290q-11 49 -44 79.5t-86 30.5q-57 0 -91 -30.5t-49 -79.5h270zM285 560q-32 0 -58.5 10.5t-46 29.5t-30 44.5t-10.5 55.5h75q0 -30 20 -50t50 -20t50 20t20 50h75q0 -30 -10.5 -55.5t-30 -44.5t-46 -29.5t-58.5 -10.5z" />
    <glyph glyph-name="uni04D8" unicode="&#x4d8;" horiz-adv-x="795" 
d="M395 -10q-73 0 -136 26.5t-109.5 74.5t-73 114t-26.5 145v25h580q-4 51 -23.5 94t-52 74.5t-75.5 49t-94 17.5q-53 0 -93 -14t-67 -31q-32 -20 -55 -45l-70 70q31 34 73 60q36 23 89 41.5t123 18.5q77 0 142 -26.5t112.5 -74.5t74 -114t26.5 -145t-26.5 -145t-73 -114
t-109.5 -74.5t-136 -26.5zM395 90q45 0 84.5 16.5t69.5 43t48.5 60.5t22.5 70h-450q4 -36 22.5 -70t48.5 -60.5t69.5 -43t84.5 -16.5z" />
    <glyph glyph-name="uni04D9" unicode="&#x4d9;" horiz-adv-x="560" 
d="M275 -10q-51 0 -94 17.5t-74.5 49t-49 74.5t-17.5 94q0 11 0.5 20t1.5 16q1 8 3 14h370q-4 24 -16.5 46t-32 38.5t-45.5 26t-56 9.5q-32 0 -58 -10.5t-44 -22.5q-21 -14 -38 -32l-60 70q20 25 50 45q26 17 64 31t91 14q52 0 98 -19.5t79.5 -53t53 -79.5t19.5 -98
q0 -53 -19.5 -98.5t-52.5 -79t-77.5 -53t-95.5 -19.5zM275 80q57 0 91 30.5t49 79.5h-270q11 -49 44 -79.5t86 -30.5z" />
    <glyph glyph-name="uni04DA" unicode="&#x4da;" horiz-adv-x="795" 
d="M395 -10q-73 0 -136 26.5t-109.5 74.5t-73 114t-26.5 145v25h580q-4 51 -23.5 94t-52 74.5t-75.5 49t-94 17.5q-53 0 -93 -14t-67 -31q-32 -20 -55 -45l-70 70q31 34 73 60q36 23 89 41.5t123 18.5q77 0 142 -26.5t112.5 -74.5t74 -114t26.5 -145t-26.5 -145t-73 -114
t-109.5 -74.5t-136 -26.5zM395 90q45 0 84.5 16.5t69.5 43t48.5 60.5t22.5 70h-450q4 -36 22.5 -70t48.5 -60.5t69.5 -43t84.5 -16.5zM305 790q-23 0 -41.5 17t-18.5 43t18.5 43t41.5 17t41.5 -17t18.5 -43t-18.5 -43t-41.5 -17zM505 790q-23 0 -41.5 17t-18.5 43t18.5 43
t41.5 17t41.5 -17t18.5 -43t-18.5 -43t-41.5 -17z" />
    <glyph glyph-name="uni04DB" unicode="&#x4db;" horiz-adv-x="560" 
d="M275 -10q-51 0 -94 17.5t-74.5 49t-49 74.5t-17.5 94q0 11 0.5 20t1.5 16q1 8 3 14h370q-4 24 -16.5 46t-32 38.5t-45.5 26t-56 9.5q-32 0 -58 -10.5t-44 -22.5q-21 -14 -38 -32l-60 70q20 25 50 45q26 17 64 31t91 14q52 0 98 -19.5t79.5 -53t53 -79.5t19.5 -98
q0 -53 -19.5 -98.5t-52.5 -79t-77.5 -53t-95.5 -19.5zM275 80q57 0 91 30.5t49 79.5h-270q11 -49 44 -79.5t86 -30.5zM180 570q-23 0 -41.5 17t-18.5 43t18.5 43t41.5 17t41.5 -17t18.5 -43t-18.5 -43t-41.5 -17zM380 570q-23 0 -41.5 17t-18.5 43t18.5 43t41.5 17t41.5 -17
t18.5 -43t-18.5 -43t-41.5 -17z" />
    <glyph glyph-name="uni04DC" unicode="&#x4dc;" horiz-adv-x="980" 
d="M290 410l-270 290h140l275 -295v295h110v-295l275 295h140l-270 -290l290 -410h-135l-230 330l-70 -75v-255h-110v255l-70 75l-230 -330h-135zM390 790q-23 0 -41.5 17t-18.5 43t18.5 43t41.5 17t41.5 -17t18.5 -43t-18.5 -43t-41.5 -17zM590 790q-23 0 -41.5 17
t-18.5 43t18.5 43t41.5 17t41.5 -17t18.5 -43t-18.5 -43t-41.5 -17z" />
    <glyph glyph-name="uni04DD" unicode="&#x4dd;" horiz-adv-x="740" 
d="M200 285l-185 195h125l180 -195v195h100v-195l180 195h125l-185 -195l200 -285h-115l-150 215l-55 -60v-155h-100v155l-55 60l-150 -215h-115zM270 570q-23 0 -41.5 17t-18.5 43t18.5 43t41.5 17t41.5 -17t18.5 -43t-18.5 -43t-41.5 -17zM470 570q-23 0 -41.5 17
t-18.5 43t18.5 43t41.5 17t41.5 -17t18.5 -43t-18.5 -43t-41.5 -17z" />
    <glyph glyph-name="uni04DE" unicode="&#x4de;" horiz-adv-x="595" 
d="M280 -10q-66 0 -115 17t-81 38q-38 24 -64 55l75 75q19 -25 46 -43q23 -16 57 -29t82 -13q37 0 66 9.5t49 25.5t30 36.5t10 43.5q0 21 -10 40.5t-30 35t-49 25t-66 9.5h-90v105h90q32 0 56 8t40.5 21t25 30.5t8.5 36.5q0 37 -33 65.5t-97 28.5q-40 0 -70.5 -12t-51.5 -26
q-25 -17 -43 -37l-75 75q26 28 62 50q31 19 75 34.5t103 15.5q58 0 103 -15t75.5 -40t46 -59t15.5 -71q0 -44 -17.5 -73.5t-37.5 -47.5q-25 -21 -55 -34q37 -13 67 -36q26 -20 47 -52.5t21 -81.5q0 -41 -18 -79t-52.5 -67t-83.5 -46.5t-111 -17.5zM190 790q-23 0 -41.5 17
t-18.5 43t18.5 43t41.5 17t41.5 -17t18.5 -43t-18.5 -43t-41.5 -17zM390 790q-23 0 -41.5 17t-18.5 43t18.5 43t41.5 17t41.5 -17t18.5 -43t-18.5 -43t-41.5 -17z" />
    <glyph glyph-name="uni04DF" unicode="&#x4df;" horiz-adv-x="440" 
d="M210 -10q-49 0 -85.5 13t-60.5 29q-29 18 -49 43l65 65q15 -17 35 -30q17 -11 41 -20.5t54 -9.5q42 0 63.5 19.5t21.5 45.5q0 23 -21.5 41.5t-63.5 18.5h-65v90h60q38 0 56.5 15.5t18.5 34.5q0 23 -18.5 39t-56.5 16q-26 0 -47.5 -6.5t-36.5 -14.5q-18 -9 -31 -20l-65 65
q19 18 45 33q23 12 56.5 22.5t78.5 10.5q43 0 76.5 -11.5t56.5 -30t35 -43t12 -50.5q0 -30 -12.5 -50.5t-27.5 -32.5q-18 -14 -40 -22q26 -9 47 -24q18 -14 33 -35.5t15 -55.5q0 -28 -13 -54t-37 -46.5t-59.5 -32.5t-80.5 -12zM120 570q-23 0 -41.5 17t-18.5 43t18.5 43
t41.5 17t41.5 -17t18.5 -43t-18.5 -43t-41.5 -17zM320 570q-23 0 -41.5 17t-18.5 43t18.5 43t41.5 17t41.5 -17t18.5 -43t-18.5 -43t-41.5 -17z" />
    </font>
</defs>
</svg>
